  0
SECTION
  2
HEADER
  9
$ACADVER
  1
AC1015
  9
$ACADMAINTVER
 70
     6
  9
$DWGCODEPAGE
  3
ANSI_1252
  9
$INSBASE
 10
0.0
 20
0.0
 30
0.0
  9
$EXTMIN
 10
0.0
 20
0.0
 30
0.0
  9
$EXTMAX
 10
420.0
 20
297.0
 30
0.0
  9
$LIMMIN
 10
0.0
 20
0.0
  9
$LIMMAX
 10
420.0
 20
297.0
  9
$ORTHOMODE
 70
     0
  9
$REGENMODE
 70
     1
  9
$FILLMODE
 70
     1
  9
$QTEXTMODE
 70
     0
  9
$MIRRTEXT
 70
     1
  9
$LTSCALE
 40
1.0
  9
$ATTMODE
 70
     1
  9
$TEXTSIZE
 40
3.0
  9
$TRACEWID
 40
1.0
  9
$TEXTSTYLE
  7
Standard
  9
$CLAYER
  8
0
  9
$CELTYPE
  6
ByLayer
  9
$CECOLOR
 62
   256
  9
$CELTSCALE
 40
1.0
  9
$DISPSILH
 70
     0
  9
$DIMSCALE
 40
1.0
  9
$DIMASZ
 40
3.302
  9
$DIMEXO
 40
0.0
  9
$DIMDLI
 40
3.75
  9
$DIMRND
 40
0.0
  9
$DIMDLE
 40
0.0
  9
$DIMEXE
 40
1.0
  9
$DIMTP
 40
0.0
  9
$DIMTM
 40
0.0
  9
$DIMTXT
 40
3.0
  9
$DIMCEN
 40
2.5
  9
$DIMTSZ
 40
0.0
  9
$DIMTOL
 70
     0
  9
$DIMLIM
 70
     0
  9
$DIMTIH
 70
     1
  9
$DIMTOH
 70
     1
  9
$DIMSE1
 70
     0
  9
$DIMSE2
 70
     0
  9
$DIMTAD
 70
     1
  9
$DIMZIN
 70
     0
  9
$DIMBLK
  1

  9
$DIMASO
 70
     1
  9
$DIMSHO
 70
     1
  9
$DIMPOST
  1

  9
$DIMAPOST
  1

  9
$DIMALT
 70
     0
  9
$DIMALTD
 70
     3
  9
$DIMALTF
 40
0.0393700787
  9
$DIMLFAC
 40
1.0
  9
$DIMTOFL
 70
     1
  9
$DIMTVP
 40
0.0
  9
$DIMTIX
 70
     0
  9
$DIMSOXD
 70
     0
  9
$DIMSAH
 70
     0
  9
$DIMBLK1
  1

  9
$DIMBLK2
  1

  9
$DIMSTYLE
  2
ISO-25
  9
$DIMCLRD
 70
     0
  9
$DIMCLRE
 70
     0
  9
$DIMCLRT
 70
     0
  9
$DIMTFAC
 40
1.0
  9
$DIMGAP
 40
1.524
  9
$DIMJUST
 70
     0
  9
$DIMSD1
 70
     0
  9
$DIMSD2
 70
     0
  9
$DIMTOLJ
 70
     0
  9
$DIMTZIN
 70
     0
  9
$DIMALTZ
 70
     0
  9
$DIMALTTZ
 70
     0
  9
$DIMUPT
 70
     0
  9
$DIMDEC
 70
     1
  9
$DIMTDEC
 70
     1
  9
$DIMALTU
 70
     2
  9
$DIMALTTD
 70
     3
  9
$DIMTXSTY
  7
Standard
  9
$DIMAUNIT
 70
     0
  9
$DIMADEC
 70
     1
  9
$DIMALTRND
 40
0.0
  9
$DIMAZIN
 70
     0
  9
$DIMDSEP
 70
    44
  9
$DIMATFIT
 70
     3
  9
$DIMFRAC
 70
     0
  9
$DIMLDRBLK
  1

  9
$DIMLUNIT
 70
     2
  9
$DIMLWD
 70
    -2
  9
$DIMLWE
 70
    -2
  9
$DIMTMOVE
 70
     0
  9
$LUNITS
 70
     2
  9
$LUPREC
 70
     2
  9
$SKETCHINC
 40
1.0
  9
$FILLETRAD
 40
10.0
  9
$AUNITS
 70
     0
  9
$AUPREC
 70
     2
  9
$MENU
  1
.
  9
$ELEVATION
 40
0.0
  9
$PELEVATION
 40
0.0
  9
$THICKNESS
 40
0.0
  9
$LIMCHECK
 70
     0
  9
$CHAMFERA
 40
0.0
  9
$CHAMFERB
 40
0.0
  9
$CHAMFERC
 40
0.0
  9
$CHAMFERD
 40
0.0
  9
$SKPOLY
 70
     0
  9
$TDCREATE
 40
2460973.624422419
  9
$TDUCREATE
 40
2460973.541089086
  9
$TDUPDATE
 40
2460973.624423518
  9
$TDUUPDATE
 40
2460973.541090185
  9
$TDINDWG
 40
0.0000000116
  9
$TDUSRTIMER
 40
0.0000000116
  9
$USRTIMER
 70
     1
  9
$ANGBASE
 50
0.0
  9
$ANGDIR
 70
     0
  9
$PDMODE
 70
     0
  9
$PDSIZE
 40
-1.0
  9
$PLINEWID
 40
0.0
  9
$SPLFRAME
 70
     0
  9
$SPLINETYPE
 70
     6
  9
$SPLINESEGS
 70
     8
  9
$HANDSEED
  5
266
  9
$SURFTAB1
 70
     6
  9
$SURFTAB2
 70
     6
  9
$SURFTYPE
 70
     6
  9
$SURFU
 70
     6
  9
$SURFV
 70
     6
  9
$UCSBASE
  2

  9
$UCSNAME
  2

  9
$UCSORG
 10
0.0
 20
0.0
 30
0.0
  9
$UCSXDIR
 10
1.0
 20
0.0
 30
0.0
  9
$UCSYDIR
 10
0.0
 20
1.0
 30
0.0
  9
$UCSORTHOREF
  2

  9
$UCSORTHOVIEW
 70
     0
  9
$UCSORGTOP
 10
0.0
 20
0.0
 30
0.0
  9
$UCSORGBOTTOM
 10
0.0
 20
0.0
 30
0.0
  9
$UCSORGLEFT
 10
0.0
 20
0.0
 30
0.0
  9
$UCSORGRIGHT
 10
0.0
 20
0.0
 30
0.0
  9
$UCSORGFRONT
 10
0.0
 20
0.0
 30
0.0
  9
$UCSORGBACK
 10
0.0
 20
0.0
 30
0.0
  9
$PUCSBASE
  2

  9
$PUCSNAME
  2

  9
$PUCSORG
 10
0.0
 20
0.0
 30
0.0
  9
$PUCSXDIR
 10
1.0
 20
0.0
 30
0.0
  9
$PUCSYDIR
 10
0.0
 20
1.0
 30
0.0
  9
$PUCSORTHOREF
  2

  9
$PUCSORTHOVIEW
 70
     0
  9
$PUCSORGTOP
 10
0.0
 20
0.0
 30
0.0
  9
$PUCSORGBOTTOM
 10
0.0
 20
0.0
 30
0.0
  9
$PUCSORGLEFT
 10
0.0
 20
0.0
 30
0.0
  9
$PUCSORGRIGHT
 10
0.0
 20
0.0
 30
0.0
  9
$PUCSORGFRONT
 10
0.0
 20
0.0
 30
0.0
  9
$PUCSORGBACK
 10
0.0
 20
0.0
 30
0.0
  9
$USERI1
 70
     0
  9
$USERI2
 70
     0
  9
$USERI3
 70
     0
  9
$USERI4
 70
     0
  9
$USERI5
 70
     0
  9
$USERR1
 40
0.0
  9
$USERR2
 40
0.0
  9
$USERR3
 40
0.0
  9
$USERR4
 40
0.0
  9
$USERR5
 40
0.0
  9
$WORLDVIEW
 70
     1
  9
$SHADEDGE
 70
     3
  9
$SHADEDIF
 70
    70
  9
$TILEMODE
 70
     1
  9
$MAXACTVP
 70
    64
  9
$PINSBASE
 10
0.0
 20
0.0
 30
0.0
  9
$PLIMCHECK
 70
     0
  9
$PEXTMIN
 10
1.0000000000E+20
 20
1.0000000000E+20
 30
1.0000000000E+20
  9
$PEXTMAX
 10
-1.0000000000E+20
 20
-1.0000000000E+20
 30
-1.0000000000E+20
  9
$PLIMMIN
 10
0.0
 20
0.0
  9
$PLIMMAX
 10
420.0
 20
297.0
  9
$UNITMODE
 70
     0
  9
$VISRETAIN
 70
     1
  9
$PLINEGEN
 70
     0
  9
$PSLTSCALE
 70
     1
  9
$TREEDEPTH
 70
  3020
  9
$CMLSTYLE
  2
Standard
  9
$CMLJUST
 70
     0
  9
$CMLSCALE
 40
20.0
  9
$PROXYGRAPHICS
 70
     1
  9
$MEASUREMENT
 70
     1
  9
$CELWEIGHT
370
    -1
  9
$ENDCAPS
280
     0
  9
$JOINSTYLE
280
     0
  9
$LWDISPLAY
290
     1
  9
$INSUNITS
 70
     4
  9
$HYPERLINKBASE
  1

  9
$STYLESHEET
  1

  9
$XEDIT
290
     1
  9
$CEPSNTYPE
380
     0
  9
$PSTYLEMODE
290
     1
  9
$FINGERPRINTGUID
  2
{65F20D20-BBC9-4BC2-838A-076005D55DD5}
  9
$VERSIONGUID
  2
{FAEB1C32-E019-11D5-929B-00C0DF256EC4}
  9
$EXTNAMES
290
     1
  9
$PSVPSCALE
 40
0.0
  9
$OLESTARTUP
290
     0
  0
ENDSEC
  0
SECTION
  2
CLASSES
  0
CLASS
  1
ACDBDICTIONARYWDFLT
  2
AcDbDictionaryWithDefault
  3
ObjectDBX Classes
 90
        0
280
     0
281
     0
  0
CLASS
  1
VISUALSTYLE
  2
AcDbVisualStyle
  3
ObjectDBX Classes
 90
     4095
280
     0
281
     0
  0
CLASS
  1
MATERIAL
  2
AcDbMaterial
  3
ObjectDBX Classes
 90
     1153
280
     0
281
     0
  0
CLASS
  1
SCALE
  2
AcDbScale
  3
ObjectDBX Classes
 90
     1153
280
     0
281
     0
  0
CLASS
  1
TABLESTYLE
  2
AcDbTableStyle
  3
ObjectDBX Classes
 90
     4095
280
     0
281
     0
  0
CLASS
  1
MLEADERSTYLE
  2
AcDbMLeaderStyle
  3
ACDB_MLEADERSTYLE_CLASS
 90
     4095
280
     0
281
     0
  0
CLASS
  1
SUN
  2
AcDbSun
  3
SCENEOE
 90
     1153
280
     0
281
     0
  0
CLASS
  1
ACDBPLACEHOLDER
  2
AcDbPlaceHolder
  3
ObjectDBX Classes
 90
        0
280
     0
281
     0
  0
CLASS
  1
LAYOUT
  2
AcDbLayout
  3
ObjectDBX Classes
 90
        0
280
     0
281
     0
  0
ENDSEC
  0
SECTION
  2
TABLES
  0
TABLE
  2
VPORT
  5
8
330
0
100
AcDbSymbolTable
 70
     1
  0
VPORT
  5
29
330
8
100
AcDbSymbolTableRecord
100
AcDbViewportTableRecord
  2
*Active
 70
     0
 10
0.0
 20
0.0
 11
1.0
 21
1.0
 12
210.0
 22
148.5
 13
0.0
 23
0.0
 14
10.0
 24
10.0
 15
10.0
 25
10.0
 16
0.0
 26
0.0
 36
1.0
 17
0.0
 27
0.0
 37
0.0
 40
297.0
 41
1.4141414141
 42
50.0
 43
0.0
 44
0.0
 50
0.0
 51
0.0
 71
     0
 72
  2000
 73
     1
 74
     3
 75
     0
 76
     0
 77
     0
 78
     0
281
     0
 65
     1
110
0.0
120
0.0
130
0.0
111
1.0
121
0.0
131
0.0
112
0.0
122
1.0
132
0.0
 79
     0
146
0.0
  0
ENDTAB
  0
TABLE
  2
LTYPE
  5
5
330
0
100
AcDbSymbolTable
 70
     6
  0
LTYPE
  5
14
330
5
100
AcDbSymbolTableRecord
100
AcDbLinetypeTableRecord
  2
ByBlock
 70
     0
  3

 72
    65
 73
     0
 40
0.0
  0
LTYPE
  5
15
330
5
100
AcDbSymbolTableRecord
100
AcDbLinetypeTableRecord
  2
ByLayer
 70
     0
  3

 72
    65
 73
     0
 40
0.0
  0
LTYPE
  5
16
330
5
100
AcDbSymbolTableRecord
100
AcDbLinetypeTableRecord
  2
Continuous
 70
     0
  3
Solid line
 72
    65
 73
     0
 40
0.0
  0
LTYPE
  5
6E
330
5
100
AcDbSymbolTableRecord
100
AcDbLinetypeTableRecord
  2
HIDDEN
 70
     0
  3
Hidden __ __ __ __ __ __ __ __ __ __ __ __ __ __
 72
    65
 73
     2
 40
1.905
 49
1.27
 74
     0
 49
-0.635
 74
     0
  0
LTYPE
  5
6F
330
5
100
AcDbSymbolTableRecord
100
AcDbLinetypeTableRecord
  2
PHANTOM
 70
     0
  3
Phantom ______  __  __  ______  __  __  ______
 72
    65
 73
     6
 40
12.7
 49
6.35
 74
     0
 49
-1.27
 74
     0
 49
1.27
 74
     0
 49
-1.27
 74
     0
 49
1.27
 74
     0
 49
-1.27
 74
     0
  0
LTYPE
  5
70
330
5
100
AcDbSymbolTableRecord
100
AcDbLinetypeTableRecord
  2
CENTER
 70
     0
  3
Center ____ _ ____ _ ____ _ ____ _ ____ _ ____
 72
    65
 73
     4
 40
10.16
 49
6.35
 74
     0
 49
-1.27
 74
     0
 49
1.27
 74
     0
 49
-1.27
 74
     0
  0
LTYPE
  5
71
330
5
100
AcDbSymbolTableRecord
100
AcDbLinetypeTableRecord
  2
CENTERX2
 70
     0
  3
Center (2x) ________  __  ________  __  _____
 72
    65
 73
     4
 40
20.32
 49
12.7
 74
     0
 49
-2.54
 74
     0
 49
2.54
 74
     0
 49
-2.54
 74
     0
  0
LTYPE
  5
72
330
5
100
AcDbSymbolTableRecord
100
AcDbLinetypeTableRecord
  2
DOT2
 70
     0
  3
Dot (.5x) ........................................
 72
    65
 73
     2
 40
0.635
 49
0.0
 74
     0
 49
-0.635
 74
     0
  0
ENDTAB
  0
TABLE
  2
LAYER
  5
2
330
0
100
AcDbSymbolTable
 70
     3
  0
LAYER
  5
10
330
2
100
AcDbSymbolTableRecord
100
AcDbLayerTableRecord
  2
0
 70
     0
 62
     7
  6
Continuous
370
    -3
390
F
  0
LAYER
  5
73
330
2
100
AcDbSymbolTableRecord
100
AcDbLayerTableRecord
  2
KOTY
 70
     0
 62
     7
  6
Continuous
370
    -3
390
F
  0
LAYER
  5
74
330
2
100
AcDbSymbolTableRecord
100
AcDbLayerTableRecord
  2
VRSTVA_1
 70
     0
 62
   179
  6
Continuous
370
    -3
390
F
  0
ENDTAB
  0
TABLE
  2
STYLE
  5
3
330
0
100
AcDbSymbolTable
 70
     2
  0
STYLE
  5
11
330
3
100
AcDbSymbolTableRecord
100
AcDbTextStyleTableRecord
  2
Standard
 70
     0
 40
0.0
 41
1.0
 50
0.0
 71
     0
 42
3.0
  3
txt
  4

  0
STYLE
  5
24A
330
3
100
AcDbSymbolTableRecord
100
AcDbTextStyleTableRecord
  2
SLDTEXTSTYLE0
 70
     0
 40
0.0
 41
0.75
 50
0.0
 71
     0
 42
3.0
  3
TXT
  4

  0
ENDTAB
  0
TABLE
  2
VIEW
  5
6
330
0
100
AcDbSymbolTable
 70
     0
  0
ENDTAB
  0
TABLE
  2
UCS
  5
7
330
0
100
AcDbSymbolTable
 70
     0
  0
ENDTAB
  0
TABLE
  2
APPID
  5
9
330
0
100
AcDbSymbolTable
 70
     1
  0
APPID
  5
12
330
9
100
AcDbSymbolTableRecord
100
AcDbRegAppTableRecord
  2
ACAD
 70
     0
  0
ENDTAB
  0
TABLE
  2
DIMSTYLE
  5
A
330
0
100
AcDbSymbolTable
 70
     2
100
AcDbDimStyleTable
  0
DIMSTYLE
105
27
330
A
100
AcDbSymbolTableRecord
100
AcDbDimStyleTableRecord
  2
ISO-25
 70
     0
 41
2.5
 42
0.625
 43
3.75
 44
1.25
 73
     0
 74
     0
 77
     1
 78
     8
140
2.5
141
2.5
143
0.0393700787
147
0.625
171
     3
172
     1
178
     0
271
     2
272
     2
274
     3
278
    44
283
     0
284
     8
340
11
  0
DIMSTYLE
105
24B
102
{ACAD_REACTORS
330
249
330
25C
102
}
330
A
100
AcDbSymbolTableRecord
100
AcDbDimStyleTableRecord
  2
SLDDIMSTYLE0
 70
     0
 41
3.302
 44
0.0
 45
0.000000001
 73
     0
 74
     0
 77
     1
 78
    12
 79
     3
140
3.0
147
0.75
173
     1
178
     0
271
     1
272
     1
276
     2
284
    12
340
24A
341
24C
343
24C
344
24C
  0
ENDTAB
  0
TABLE
  2
BLOCK_RECORD
  5
1
330
0
100
AcDbSymbolTable
 70
     6
  0
BLOCK_RECORD
  5
1F
330
1
100
AcDbSymbolTableRecord
100
AcDbBlockTableRecord
  2
*Model_Space
340
22
  0
BLOCK_RECORD
  5
1B
330
1
100
AcDbSymbolTableRecord
100
AcDbBlockTableRecord
  2
*Paper_Space
340
1E
  0
BLOCK_RECORD
  5
23
330
1
100
AcDbSymbolTableRecord
100
AcDbBlockTableRecord
  2
*Paper_Space0
340
26
  0
BLOCK_RECORD
  5
75
330
1
100
AcDbSymbolTableRecord
100
AcDbBlockTableRecord
  2
BLOCK 2
340
0
102
{BLKREFS
331
1D0
102
}
  0
BLOCK_RECORD
  5
168
330
1
100
AcDbSymbolTableRecord
100
AcDbBlockTableRecord
  2
Block3
340
0
  0
BLOCK_RECORD
  5
24C
330
1
100
AcDbSymbolTableRecord
100
AcDbBlockTableRecord
  2
_CLOSED
340
0
102
{BLKREFS
331
256
331
257
331
260
331
261
102
}
  0
BLOCK_RECORD
  5
253
330
1
100
AcDbSymbolTableRecord
100
AcDbBlockTableRecord
  2
_D
340
0
  0
BLOCK_RECORD
  5
25D
330
1
100
AcDbSymbolTableRecord
100
AcDbBlockTableRecord
  2
_D_1
340
0
  0
ENDTAB
  0
ENDSEC
  0
SECTION
  2
BLOCKS
  0
BLOCK
  5
20
330
1F
100
AcDbEntity
  8
0
100
AcDbBlockBegin
  2
*Model_Space
 70
     0
 10
0.0
 20
0.0
 30
0.0
  3
*Model_Space
  1

  0
ENDBLK
  5
21
330
1F
100
AcDbEntity
  8
0
100
AcDbBlockEnd
  0
BLOCK
  5
1C
330
1B
100
AcDbEntity
 67
     1
  8
0
100
AcDbBlockBegin
  2
*Paper_Space
 70
     0
 10
0.0
 20
0.0
 30
0.0
  3
*Paper_Space
  1

  0
ENDBLK
  5
1D
330
1B
100
AcDbEntity
 67
     1
  8
0
100
AcDbBlockEnd
  0
BLOCK
  5
24
330
23
100
AcDbEntity
  8
0
100
AcDbBlockBegin
  2
*Paper_Space0
 70
     0
 10
0.0
 20
0.0
 30
0.0
  3
*Paper_Space0
  1

  0
ENDBLK
  5
25
330
23
100
AcDbEntity
  8
0
100
AcDbBlockEnd
  0
BLOCK
  5
76
330
75
100
AcDbEntity
  8
0
100
AcDbBlockBegin
  2
BLOCK 2
 70
     0
 10
0.0
 20
0.0
 30
0.0
  3
BLOCK 2
  1

  0
LINE
  5
78
330
75
100
AcDbEntity
  8
0
 62
    19
370
    15
100
AcDbLine
 10
2519.8499803813
 20
2332.3171033666
 30
0.0
 11
2519.8499803813
 21
3987.145327508
 31
0.0
  0
LINE
  5
79
330
75
100
AcDbEntity
  8
0
 62
    19
370
    15
100
AcDbLine
 10
2519.8499803813
 20
3987.145327508
 30
0.0
 11
2910.0629235346
 21
3987.145327508
 31
0.0
  0
LINE
  5
7A
330
75
100
AcDbEntity
  8
0
 62
    19
370
    15
100
AcDbLine
 10
3435.1129765718
 20
3472.3071576063
 30
0.0
 11
3435.1129765718
 21
2867.5877900817
 31
0.0
  0
LINE
  5
7B
330
75
100
AcDbEntity
  8
0
 62
    19
370
    15
100
AcDbLine
 10
2922.3224336227
 20
2332.3171033666
 30
0.0
 11
2519.8499803813
 21
2332.3171033666
 31
0.0
  0
LINE
  5
7C
330
75
100
AcDbEntity
  8
0
 62
    19
370
    15
100
AcDbLine
 10
2822.2162270505
 20
2542.750150189
 30
0.0
 11
2914.1494268973
 21
2542.750150189
 31
0.0
  0
LINE
  5
7D
330
75
100
AcDbEntity
  8
0
 62
    19
370
    15
100
AcDbLine
 10
3128.6602265399
 20
2859.4147833563
 30
0.0
 11
3128.6602265399
 21
3492.7396744198
 31
0.0
  0
LINE
  5
7E
330
75
100
AcDbEntity
  8
0
 62
    19
370
    15
100
AcDbLine
 10
2910.0629235346
 20
3772.6345278654
 30
0.0
 11
2822.2162270505
 21
3772.6345278654
 31
0.0
  0
LINE
  5
7F
330
75
100
AcDbEntity
  8
0
 62
    19
370
    15
100
AcDbLine
 10
2822.2162270505
 20
3772.6345278654
 30
0.0
 11
2822.2162270505
 21
2542.750150189
 31
0.0
  0
LINE
  5
80
330
75
100
AcDbEntity
  8
0
 62
    19
370
    15
100
AcDbLine
 10
3629.1825088583
 20
2573.3945501379
 30
0.0
 11
3629.1825088583
 21
3513.1721912333
 31
0.0
  0
LINE
  5
81
330
75
100
AcDbEntity
  8
0
 62
    19
370
    15
100
AcDbLine
 10
3629.1825088583
 20
3513.1721912333
 30
0.0
 11
3907.0297353514
 21
3513.1721912333
 31
0.0
  0
LINE
  5
82
330
75
100
AcDbEntity
  8
0
 62
    19
370
    15
100
AcDbLine
 10
3907.0297353514
 20
3513.1721912333
 30
0.0
 11
3907.0297353514
 21
2624.4627163578
 31
0.0
  0
LINE
  5
83
330
75
100
AcDbEntity
  8
0
 62
    19
370
    15
100
AcDbLine
 10
4113.3762788111
 20
2567.2516692801
 30
0.0
 11
4113.3762788111
 21
3513.1721912333
 31
0.0
  0
LINE
  5
84
330
75
100
AcDbEntity
  8
0
 62
    19
370
    15
100
AcDbLine
 10
4113.3762788111
 20
3513.1721912333
 30
0.0
 11
4391.2235053041
 21
3513.1721912333
 31
0.0
  0
LINE
  5
85
330
75
100
AcDbEntity
  8
0
 62
    19
370
    15
100
AcDbLine
 10
4391.2235053041
 20
3513.1721912333
 30
0.0
 11
4391.2235053041
 21
2332.3171033666
 31
0.0
  0
LINE
  5
86
330
75
100
AcDbEntity
  8
0
 62
    19
370
    15
100
AcDbLine
 10
4391.2235053041
 20
2332.3171033666
 30
0.0
 11
4113.3762788111
 21
2332.3171033666
 31
0.0
  0
LINE
  5
87
330
75
100
AcDbEntity
  8
0
 62
    19
370
    15
100
AcDbLine
 10
4113.3762788111
 20
2332.3171033666
 30
0.0
 11
4113.3762788111
 21
2444.6740694843
 31
0.0
  0
LINE
  5
88
330
75
100
AcDbEntity
  8
0
 62
    19
370
    15
100
AcDbLine
 10
4583.245410638
 20
2744.9926892009
 30
0.0
 11
4583.245410638
 21
3100.4791043139
 31
0.0
  0
LINE
  5
89
330
75
100
AcDbEntity
  8
0
 62
    19
370
    15
100
AcDbLine
 10
5328.9491441756
 20
3078.0077110903
 30
0.0
 11
5328.9491441756
 21
2910.4829495762
 31
0.0
  0
LINE
  5
8A
330
75
100
AcDbEntity
  8
0
 62
    19
370
    15
100
AcDbLine
 10
5328.9491441756
 20
2910.4829495762
 30
0.0
 11
4859.053760721
 21
2910.4829495762
 31
0.0
  0
LINE
  5
8B
330
75
100
AcDbEntity
  8
0
 62
    19
370
    15
100
AcDbLine
 10
4859.053760721
 20
2910.4829495762
 30
0.0
 11
4859.053760721
 21
2677.5785095303
 31
0.0
  0
LINE
  5
8C
330
75
100
AcDbEntity
  8
0
 62
    19
370
    15
100
AcDbLine
 10
5067.4391805908
 20
2667.3578758523
 30
0.0
 11
5067.4391805908
 21
2765.4339565569
 31
0.0
  0
LINE
  5
8D
330
75
100
AcDbEntity
  8
0
 62
    19
370
    15
100
AcDbLine
 10
5067.4391805908
 20
2765.4339565569
 30
0.0
 11
5326.901517223
 21
2765.4339565569
 31
0.0
  0
LINE
  5
8E
330
75
100
AcDbEntity
  8
0
 62
    19
370
    15
100
AcDbLine
 10
5326.901517223
 20
2765.4339565569
 30
0.0
 11
5326.901517223
 21
2685.7515162556
 31
0.0
  0
LINE
  5
8F
330
75
100
AcDbEntity
  8
0
 62
    19
370
    15
100
AcDbLine
 10
4859.053760721
 20
3047.3633111414
 30
0.0
 11
5067.4391805908
 21
3047.3633111414
 31
0.0
  0
LINE
  5
90
330
75
100
AcDbEntity
  8
0
 62
    19
370
    15
100
AcDbLine
 10
5067.4391805908
 20
3047.3633111414
 30
0.0
 11
5067.4391805908
 21
3159.7290278016
 31
0.0
  0
LINE
  5
91
330
75
100
AcDbEntity
  8
0
 62
    19
370
    15
100
AcDbLine
 10
4859.053760721
 20
3129.0846278527
 30
0.0
 11
4859.053760721
 21
3047.3633111414
 31
0.0
  0
LINE
  5
92
330
75
100
AcDbEntity
  8
0
 62
    19
370
    15
100
AcDbLine
 10
5535.2956876353
 20
2332.3171033666
 30
0.0
 11
5535.2956876353
 21
3987.145327508
 31
0.0
  0
LINE
  5
93
330
75
100
AcDbEntity
  8
0
 62
    19
370
    15
100
AcDbLine
 10
5535.2956876353
 20
3987.145327508
 30
0.0
 11
5811.1040377182
 21
3987.145327508
 31
0.0
  0
LINE
  5
94
330
75
100
AcDbEntity
  8
0
 62
    19
370
    15
100
AcDbLine
 10
5811.1040377182
 20
3987.145327508
 30
0.0
 11
5811.1040377182
 21
2332.3171033666
 31
0.0
  0
LINE
  5
95
330
75
100
AcDbEntity
  8
0
 62
    19
370
    15
100
AcDbLine
 10
5811.1040377182
 20
2332.3171033666
 30
0.0
 11
5535.2956876353
 21
2332.3171033666
 31
0.0
  0
LINE
  5
96
330
75
100
AcDbEntity
  8
0
 62
    19
370
    15
100
AcDbLine
 10
6505.7046028658
 20
2814.4544958242
 30
0.0
 11
6765.1669394979
 21
2865.5401631291
 31
0.0
  0
LINE
  5
97
330
75
100
AcDbEntity
  8
0
 62
    19
370
    15
100
AcDbLine
 10
6908.1770561072
 20
3014.6800347824
 30
0.0
 11
6699.7916362374
 21
3198.546434476
 31
0.0
  0
LINE
  5
98
330
75
100
AcDbEntity
  8
0
 62
    19
370
    15
100
AcDbLine
 10
7349.4669160229
 20
3556.0761012703
 30
0.0
 11
7092.0522063433
 21
3511.1245642806
 31
0.0
  0
LINE
  5
99
330
75
100
AcDbEntity
  8
0
 62
    19
370
    15
100
AcDbLine
 10
6924.5230695579
 20
3378.3350813494
 30
0.0
 11
7130.8696130176
 21
3196.5075580659
 31
0.0
  0
LINE
  5
9A
330
75
100
AcDbEntity
  8
0
 62
    19
370
    15
100
AcDbLine
 10
7529.2380618113
 20
2011.557216294
 30
0.0
 11
7529.2380618113
 21
2211.7696294384
 31
0.0
  0
LINE
  5
9B
330
75
100
AcDbEntity
  8
0
 62
    19
370
    15
100
AcDbLine
 10
7688.5941918713
 20
2514.1358761076
 30
0.0
 11
7429.1318552391
 21
3513.1721912333
 31
0.0
  0
LINE
  5
9C
330
75
100
AcDbEntity
  8
0
 62
    19
370
    15
100
AcDbLine
 10
7429.1318552391
 20
3513.1721912333
 30
0.0
 11
7698.8148255493
 21
3513.1721912333
 31
0.0
  0
LINE
  5
9D
330
75
100
AcDbEntity
  8
0
 62
    19
370
    15
100
AcDbLine
 10
7698.8148255493
 20
3513.1721912333
 30
0.0
 11
7852.0368252939
 21
2734.789556608
 31
0.0
  0
LINE
  5
9E
330
75
100
AcDbEntity
  8
0
 62
    19
370
    15
100
AcDbLine
 10
7852.0368252939
 20
2734.789556608
 30
0.0
 11
7984.8350587677
 21
3513.1721912333
 31
0.0
  0
LINE
  5
9F
330
75
100
AcDbEntity
  8
0
 62
    19
370
    15
100
AcDbLine
 10
7984.8350587677
 20
3513.1721912333
 30
0.0
 11
8252.4704021253
 21
3513.1721912333
 31
0.0
  0
LINE
  5
A0
330
75
100
AcDbEntity
  8
0
 62
    19
370
    15
100
AcDbLine
 10
8252.4704021253
 20
3513.1721912333
 30
0.0
 11
7976.6620520423
 21
2285.3266899669
 31
0.0
  0
LINE
  5
A1
330
75
100
AcDbEntity
  8
0
 62
    19
370
    15
100
AcDbLine
 10
7582.3626055263
 20
2011.557216294
 30
0.0
 11
7529.2380618113
 21
2011.557216294
 31
0.0
  0
LINE
  5
A2
330
75
100
AcDbEntity
  8
0
 62
    19
370
    15
100
AcDbLine
 10
8319.8583301683
 20
2626.5103433104
 30
0.0
 11
8526.204873628
 21
2706.1752825266
 31
0.0
  0
LINE
  5
A3
330
75
100
AcDbEntity
  8
0
 62
    19
370
    15
100
AcDbLine
 10
8665.1284868745
 20
2787.9053497805
 30
0.0
 11
8522.1183702653
 21
2908.4353226236
 31
0.0
  0
LINE
  5
A4
330
75
100
AcDbEntity
  8
0
 62
    19
370
    15
100
AcDbLine
 10
9024.6970300789
 20
3225.1043310622
 30
0.0
 11
8842.8695067954
 21
3147.4695177136
 31
0.0
  0
LINE
  5
A5
330
75
100
AcDbEntity
  8
0
 62
    19
370
    15
100
AcDbLine
 10
8712.1189002742
 20
3084.1418414056
 30
0.0
 11
8857.1766438361
 21
2953.3781090707
 31
0.0
  0
LINE
  5
A6
330
75
100
AcDbEntity
  8
0
 62
    19
370
    15
100
AcDbLine
 10
9245.3244589517
 20
2626.5103433104
 30
0.0
 11
9245.3244589517
 21
3329.2970409971
 31
0.0
  0
LINE
  5
A7
330
75
100
AcDbEntity
  8
0
 62
    19
370
    15
100
AcDbLine
 10
9245.3244589517
 20
3329.2970409971
 30
0.0
 11
9126.8333625186
 21
3329.2970409971
 31
0.0
  0
LINE
  5
A8
330
75
100
AcDbEntity
  8
0
 62
    19
370
    15
100
AcDbLine
 10
9126.8333625186
 20
3329.2970409971
 30
0.0
 11
9126.8333625186
 21
3513.1721912333
 31
0.0
  0
LINE
  5
A9
330
75
100
AcDbEntity
  8
0
 62
    19
370
    15
100
AcDbLine
 10
9126.8333625186
 20
3513.1721912333
 30
0.0
 11
9245.3244589517
 21
3513.1721912333
 31
0.0
  0
LINE
  5
AA
330
75
100
AcDbEntity
  8
0
 62
    19
370
    15
100
AcDbLine
 10
9245.3244589517
 20
3513.1721912333
 30
0.0
 11
9245.3244589517
 21
3866.6066041223
 31
0.0
  0
LINE
  5
AB
330
75
100
AcDbEntity
  8
0
 62
    19
370
    15
100
AcDbLine
 10
9245.3244589517
 20
3866.6066041223
 30
0.0
 11
9525.2193123973
 21
3866.6066041223
 31
0.0
  0
LINE
  5
AC
330
75
100
AcDbEntity
  8
0
 62
    19
370
    15
100
AcDbLine
 10
9525.2193123973
 20
3866.6066041223
 30
0.0
 11
9525.2193123973
 21
3513.1721912333
 31
0.0
  0
LINE
  5
AD
330
75
100
AcDbEntity
  8
0
 62
    19
370
    15
100
AcDbLine
 10
9525.2193123973
 20
3513.1721912333
 30
0.0
 11
9705.0079592708
 21
3513.1721912333
 31
0.0
  0
LINE
  5
AE
330
75
100
AcDbEntity
  8
0
 62
    19
370
    15
100
AcDbLine
 10
9705.0079592708
 20
3513.1721912333
 30
0.0
 11
9705.0079592708
 21
3329.2970409971
 31
0.0
  0
LINE
  5
AF
330
75
100
AcDbEntity
  8
0
 62
    19
370
    15
100
AcDbLine
 10
9705.0079592708
 20
3329.2970409971
 30
0.0
 11
9525.2193123973
 21
3329.2970409971
 31
0.0
  0
LINE
  5
B0
330
75
100
AcDbEntity
  8
0
 62
    19
370
    15
100
AcDbLine
 10
9525.2193123973
 20
3329.2970409971
 30
0.0
 11
9525.2193123973
 21
2651.0293634865
 31
0.0
  0
LINE
  5
B1
330
75
100
AcDbEntity
  8
0
 62
    19
370
    15
100
AcDbLine
 10
9717.2587188163
 20
2544.7802760565
 30
0.0
 11
9717.2587188163
 21
2332.3171033666
 31
0.0
  0
LINE
  5
B2
330
75
100
AcDbEntity
  8
0
 62
    19
370
    15
100
AcDbLine
 10
9854.1172040252
 20
2744.9926892009
 30
0.0
 11
9854.1172040252
 21
3100.4791043139
 31
0.0
  0
LINE
  5
B3
330
75
100
AcDbEntity
  8
0
 62
    19
370
    15
100
AcDbLine
 10
10599.8209375627
 20
3078.0077110903
 30
0.0
 11
10599.8209375627
 21
2910.4829495762
 31
0.0
  0
LINE
  5
B4
330
75
100
AcDbEntity
  8
0
 62
    19
370
    15
100
AcDbLine
 10
10599.8209375627
 20
2910.4829495762
 30
0.0
 11
10129.9255541081
 21
2910.4829495762
 31
0.0
  0
LINE
  5
B5
330
75
100
AcDbEntity
  8
0
 62
    19
370
    15
100
AcDbLine
 10
10129.9255541081
 20
2910.4829495762
 30
0.0
 11
10129.9255541081
 21
2677.5785095303
 31
0.0
  0
LINE
  5
B6
330
75
100
AcDbEntity
  8
0
 62
    19
370
    15
100
AcDbLine
 10
10338.3109739779
 20
2667.3578758523
 30
0.0
 11
10338.3109739779
 21
2765.4339565569
 31
0.0
  0
LINE
  5
B7
330
75
100
AcDbEntity
  8
0
 62
    19
370
    15
100
AcDbLine
 10
10338.3109739779
 20
2765.4339565569
 30
0.0
 11
10597.7733106101
 21
2765.4339565569
 31
0.0
  0
LINE
  5
B8
330
75
100
AcDbEntity
  8
0
 62
    19
370
    15
100
AcDbLine
 10
10597.7733106101
 20
2765.4339565569
 30
0.0
 11
10597.7733106101
 21
2685.7515162556
 31
0.0
  0
LINE
  5
B9
330
75
100
AcDbEntity
  8
0
 62
    19
370
    15
100
AcDbLine
 10
10129.9255541081
 20
3047.3633111414
 30
0.0
 11
10338.3109739779
 21
3047.3633111414
 31
0.0
  0
LINE
  5
BA
330
75
100
AcDbEntity
  8
0
 62
    19
370
    15
100
AcDbLine
 10
10338.3109739779
 20
3047.3633111414
 30
0.0
 11
10338.3109739779
 21
3159.7290278016
 31
0.0
  0
LINE
  5
BB
330
75
100
AcDbEntity
  8
0
 62
    19
370
    15
100
AcDbLine
 10
10129.9255541081
 20
3129.0846278527
 30
0.0
 11
10129.9255541081
 21
3047.3633111414
 31
0.0
  0
LINE
  5
BC
330
75
100
AcDbEntity
  8
0
 62
    19
370
    15
100
AcDbLine
 10
10787.773840619
 20
2332.3171033666
 30
0.0
 11
10787.773840619
 21
3513.1721912333
 31
0.0
  0
LINE
  5
BD
330
75
100
AcDbEntity
  8
0
 62
    19
370
    15
100
AcDbLine
 10
10787.773840619
 20
3513.1721912333
 30
0.0
 11
11055.4004334341
 21
3513.1721912333
 31
0.0
  0
LINE
  5
BE
330
75
100
AcDbEntity
  8
0
 62
    19
370
    15
100
AcDbLine
 10
11055.4004334341
 20
3513.1721912333
 30
0.0
 11
11055.4004334341
 21
3411.0183577084
 31
0.0
  0
LINE
  5
BF
330
75
100
AcDbEntity
  8
0
 62
    19
370
    15
100
AcDbLine
 10
12048.3069935157
 20
3253.7098546011
 30
0.0
 11
12048.3069935157
 21
2332.3171033666
 31
0.0
  0
LINE
  5
C0
330
75
100
AcDbEntity
  8
0
 62
    19
370
    15
100
AcDbLine
 10
12048.3069935157
 20
2332.3171033666
 30
0.0
 11
11782.7105265682
 21
2332.3171033666
 31
0.0
  0
LINE
  5
C1
330
75
100
AcDbEntity
  8
0
 62
    19
370
    15
100
AcDbLine
 10
11782.7105265682
 20
2332.3171033666
 30
0.0
 11
11782.7105265682
 21
3229.1908344249
 31
0.0
  0
LINE
  5
C2
330
75
100
AcDbEntity
  8
0
 62
    19
370
    15
100
AcDbLine
 10
11551.8537134749
 20
3253.7098546011
 30
0.0
 11
11551.8537134749
 21
2332.3171033666
 31
0.0
  0
LINE
  5
C3
330
75
100
AcDbEntity
  8
0
 62
    19
370
    15
100
AcDbLine
 10
11551.8537134749
 20
2332.3171033666
 30
0.0
 11
11288.30487348
 21
2332.3171033666
 31
0.0
  0
LINE
  5
C4
330
75
100
AcDbEntity
  8
0
 62
    19
370
    15
100
AcDbLine
 10
11288.30487348
 20
2332.3171033666
 30
0.0
 11
11288.30487348
 21
3229.1908344249
 31
0.0
  0
LINE
  5
C5
330
75
100
AcDbEntity
  8
0
 62
    19
370
    15
100
AcDbLine
 10
11055.4004334341
 20
3278.2288747772
 30
0.0
 11
11055.4004334341
 21
2332.3171033666
 31
0.0
  0
LINE
  5
C6
330
75
100
AcDbEntity
  8
0
 62
    19
370
    15
100
AcDbLine
 10
11055.4004334341
 20
2332.3171033666
 30
0.0
 11
10787.773840619
 21
2332.3171033666
 31
0.0
  0
SPLINE
  5
C7
330
75
100
AcDbEntity
  8
0
 62
    19
370
    15
100
AcDbSpline
210
0.0
220
0.0
230
1.0
 70
     8
 71
     3
 72
     8
 73
     4
 74
     0
 42
0.000000001
 43
0.00000001
 40
2.0
 40
2.0
 40
2.0
 40
2.0
 40
3.0
 40
3.0
 40
3.0
 40
3.0
 10
2910.062923534636
 20
3987.145327507988
 30
0.0
 10
3044.900033418462
 20
3987.145327507988
 30
0.0
 10
3150.116556829658
 20
3968.760437647133
 30
0.0
 10
3225.703743225692
 20
3931.990657925423
 30
0.0
  0
SPLINE
  5
C8
330
75
100
AcDbEntity
  8
0
 62
    19
370
    15
100
AcDbSpline
210
0.0
220
0.0
230
1.0
 70
     8
 71
     3
 72
     8
 73
     4
 74
     0
 42
0.000000001
 43
0.00000001
 40
3.0
 40
3.0
 40
3.0
 40
3.0
 40
4.0
 40
4.0
 40
4.0
 40
4.0
 10
3225.703743225692
 20
3931.990657925423
 30
0.0
 10
3301.299680164259
 20
3895.21212766118
 30
0.0
 10
3355.089265111748
 20
3838.674872358475
 30
0.0
 10
3387.107500238291
 20
3762.413894187433
 30
0.0
  0
SPLINE
  5
C9
330
75
100
AcDbEntity
  8
0
 62
    19
370
    15
100
AcDbSpline
210
0.0
220
0.0
230
1.0
 70
     8
 71
     3
 72
     8
 73
     4
 74
     0
 42
0.000000001
 43
0.00000001
 40
4.0
 40
4.0
 40
4.0
 40
4.0
 40
5.0
 40
5.0
 40
5.0
 40
5.0
 10
3387.107500238291
 20
3762.413894187433
 30
0.0
 10
3419.090733194707
 20
3686.126664388798
 30
0.0
 10
3435.112976571776
 20
3589.433169404292
 30
0.0
 10
3435.112976571776
 20
3472.307157606317
 30
0.0
  0
SPLINE
  5
CA
330
75
100
AcDbEntity
  8
0
 62
    19
370
    15
100
AcDbSpline
210
0.0
220
0.0
230
1.0
 70
     8
 71
     3
 72
     8
 73
     4
 74
     0
 42
0.000000001
 43
0.00000001
 40
6.0
 40
6.0
 40
6.0
 40
6.0
 40
7.0
 40
7.0
 40
7.0
 40
7.0
 10
3435.112976571776
 20
2867.587790081715
 30
0.0
 10
3435.112976571776
 20
2747.70535738599
 30
0.0
 10
3419.090733194707
 20
2647.949172515097
 30
0.0
 10
3387.107500238291
 20
2568.2842332989
 30
0.0
  0
SPLINE
  5
CB
330
75
100
AcDbEntity
  8
0
 62
    19
370
    15
100
AcDbSpline
210
0.0
220
0.0
230
1.0
 70
     8
 71
     3
 72
     8
 73
     4
 74
     0
 42
0.000000001
 43
0.00000001
 40
7.0
 40
7.0
 40
7.0
 40
7.0
 40
8.0
 40
8.0
 40
8.0
 40
8.0
 10
3387.107500238291
 20
2568.2842332989
 30
0.0
 10
3355.089265111748
 20
2488.601792997641
 30
0.0
 10
3301.964721396732
 20
2429.360620052382
 30
0.0
 10
3227.751370178306
 20
2390.543213378058
 30
0.0
  0
SPLINE
  5
CC
330
75
100
AcDbEntity
  8
0
 62
    19
370
    15
100
AcDbSpline
210
0.0
220
0.0
230
1.0
 70
     8
 71
     3
 72
     8
 73
     4
 74
     0
 42
0.000000001
 43
0.00000001
 40
8.0
 40
8.0
 40
8.0
 40
8.0
 40
9.0
 40
9.0
 40
9.0
 40
9.0
 10
3227.751370178306
 20
2390.543213378058
 30
0.0
 10
3153.503016789749
 20
2351.725806703735
 30
0.0
 10
3051.699204966241
 20
2332.317103366573
 30
0.0
 10
2922.322433622717
 20
2332.317103366573
 30
0.0
  0
SPLINE
  5
CD
330
75
100
AcDbEntity
  8
0
 62
    19
370
    15
100
AcDbSpline
210
0.0
220
0.0
230
1.0
 70
     8
 71
     3
 72
     8
 73
     4
 74
     0
 42
0.000000001
 43
0.00000001
 40
1.0
 40
1.0
 40
1.0
 40
1.0
 40
2.0
 40
2.0
 40
2.0
 40
2.0
 10
2914.149426897331
 20
2542.750150188965
 30
0.0
 10
2983.611233520589
 20
2542.750150188965
 30
0.0
 10
3033.314315105386
 20
2555.000909734514
 30
0.0
 10
3063.284923279317
 20
2579.519929910675
 30
0.0
  0
SPLINE
  5
CE
330
75
100
AcDbEntity
  8
0
 62
    19
370
    15
100
AcDbSpline
210
0.0
220
0.0
230
1.0
 70
     8
 71
     3
 72
     8
 73
     4
 74
     0
 42
0.000000001
 43
0.00000001
 40
2.0
 40
2.0
 40
2.0
 40
2.0
 40
3.0
 40
3.0
 40
3.0
 40
3.0
 10
3063.284923279317
 20
2579.519929910675
 30
0.0
 10
3093.229279825651
 20
2604.038950086837
 30
0.0
 10
3111.614169686507
 20
2639.793666874774
 30
0.0
 10
3118.448343404415
 20
2686.76657918942
 30
0.0
  0
SPLINE
  5
CF
330
75
100
AcDbEntity
  8
0
 62
    19
370
    15
100
AcDbSpline
210
0.0
220
0.0
230
1.0
 70
     8
 71
     3
 72
     8
 73
     4
 74
     0
 42
0.000000001
 43
0.00000001
 40
3.0
 40
3.0
 40
3.0
 40
3.0
 40
4.0
 40
4.0
 40
4.0
 40
4.0
 10
3118.448343404415
 20
2686.76657918942
 30
0.0
 10
3125.247514952195
 20
2733.756992589131
 30
0.0
 10
3128.660226539885
 20
2791.283059198012
 30
0.0
 10
3128.660226539885
 20
2859.414783356326
 30
0.0
  0
SPLINE
  5
D0
330
75
100
AcDbEntity
  8
0
 62
    19
370
    15
100
AcDbSpline
210
0.0
220
0.0
230
1.0
 70
     8
 71
     3
 72
     8
 73
     4
 74
     0
 42
0.000000001
 43
0.00000001
 40
5.0
 40
5.0
 40
5.0
 40
5.0
 40
6.0
 40
6.0
 40
6.0
 40
6.0
 10
3128.660226539885
 20
3492.739674419784
 30
0.0
 10
3128.660226539885
 20
3559.453810687828
 30
0.0
 10
3123.873679774587
 20
3613.278397805449
 30
0.0
 10
3114.361840041721
 20
3654.134680889852
 30
0.0
  0
SPLINE
  5
D1
330
75
100
AcDbEntity
  8
0
 62
    19
370
    15
100
AcDbSpline
210
0.0
220
0.0
230
1.0
 70
     8
 71
     3
 72
     8
 73
     4
 74
     0
 42
0.000000001
 43
0.00000001
 40
6.0
 40
6.0
 40
6.0
 40
6.0
 40
7.0
 40
7.0
 40
7.0
 40
7.0
 10
3114.361840041721
 20
3654.134680889852
 30
0.0
 10
3104.814998138727
 20
3694.999714516789
 30
0.0
 10
3085.056273100264
 20
3724.944071063123
 30
0.0
 10
3055.111916553931
 20
3744.029004326579
 30
0.0
  0
SPLINE
  5
D2
330
75
100
AcDbEntity
  8
0
 62
    19
370
    15
100
AcDbSpline
210
0.0
220
0.0
230
1.0
 70
     8
 71
     3
 72
     8
 73
     4
 74
     0
 42
0.000000001
 43
0.00000001
 40
7.0
 40
7.0
 40
7.0
 40
7.0
 40
8.0
 40
8.0
 40
8.0
 40
8.0
 10
3055.111916553931
 20
3744.029004326579
 30
0.0
 10
3025.141308379999
 20
3763.087685962441
 30
0.0
 10
2976.77705980268
 20
3772.634527865434
 30
0.0
 10
2910.062923534636
 20
3772.634527865434
 30
0.0
  0
SPLINE
  5
D3
330
75
100
AcDbEntity
  8
0
 62
    19
370
    15
100
AcDbSpline
210
0.0
220
0.0
230
1.0
 70
     8
 71
     3
 72
     8
 73
     4
 74
     0
 42
0.000000001
 43
0.00000001
 40
0.0
 40
0.0
 40
0.0
 40
0.0
 40
1.0
 40
1.0
 40
1.0
 40
1.0
 10
3829.39492200272
 20
2313.923462963186
 30
0.0
 10
3783.078300378015
 20
2313.923462963186
 30
0.0
 10
3744.934685478697
 20
2325.859202977563
 30
0.0
 10
3714.990328932363
 20
2349.678179751123
 30
0.0
  0
SPLINE
  5
D4
330
75
100
AcDbEntity
  8
0
 62
    19
370
    15
100
AcDbSpline
210
0.0
220
0.0
230
1.0
 70
     8
 71
     3
 72
     8
 73
     4
 74
     0
 42
0.000000001
 43
0.00000001
 40
1.0
 40
1.0
 40
1.0
 40
1.0
 40
2.0
 40
2.0
 40
2.0
 40
2.0
 10
3714.990328932363
 20
2349.678179751123
 30
0.0
 10
3685.019720758432
 20
2373.497156524681
 30
0.0
 10
3663.213368767357
 20
2405.506641108693
 30
0.0
 10
3649.615025671797
 20
2445.706633503156
 30
0.0
  0
SPLINE
  5
D5
330
75
100
AcDbEntity
  8
0
 62
    19
370
    15
100
AcDbSpline
210
0.0
220
0.0
230
1.0
 70
     8
 71
     3
 72
     8
 73
     4
 74
     0
 42
0.000000001
 43
0.00000001
 40
2.0
 40
2.0
 40
2.0
 40
2.0
 40
3.0
 40
3.0
 40
3.0
 40
3.0
 10
3649.615025671797
 20
2445.706633503156
 30
0.0
 10
3635.981680406108
 20
2485.854122642425
 30
0.0
 10
3629.182508858329
 20
2528.434262605739
 30
0.0
 10
3629.182508858329
 20
2573.394550137901
 30
0.0
  0
SPLINE
  5
D6
330
75
100
AcDbEntity
  8
0
 62
    19
370
    15
100
AcDbSpline
210
0.0
220
0.0
230
1.0
 70
     8
 71
     3
 72
     8
 73
     4
 74
     0
 42
0.000000001
 43
0.00000001
 40
6.0
 40
6.0
 40
6.0
 40
6.0
 40
7.0
 40
7.0
 40
7.0
 40
7.0
 10
3907.029735351368
 20
2624.462716357772
 30
0.0
 10
3907.029735351368
 20
2589.023019101007
 30
0.0
 10
3912.813843965373
 20
2561.441309038459
 30
0.0
 10
3924.399562278449
 20
2541.717586170127
 30
0.0
  0
SPLINE
  5
D7
330
75
100
AcDbEntity
  8
0
 62
    19
370
    15
100
AcDbSpline
210
0.0
220
0.0
230
1.0
 70
     8
 71
     3
 72
     8
 73
     4
 74
     0
 42
0.000000001
 43
0.00000001
 40
7.0
 40
7.0
 40
7.0
 40
7.0
 40
8.0
 40
8.0
 40
8.0
 40
8.0
 10
3924.399562278449
 20
2541.717586170127
 30
0.0
 10
3935.950278421395
 20
2521.958861131664
 30
0.0
 10
3957.406608711169
 20
2512.105750240029
 30
0.0
 10
3988.751052062708
 20
2512.105750240029
 30
0.0
  0
SPLINE
  5
D8
330
75
100
AcDbEntity
  8
0
 62
    19
370
    15
100
AcDbSpline
210
0.0
220
0.0
230
1.0
 70
     8
 71
     3
 72
     8
 73
     4
 74
     0
 42
0.000000001
 43
0.00000001
 40
8.0
 40
8.0
 40
8.0
 40
8.0
 40
9.0
 40
9.0
 40
9.0
 40
9.0
 10
3988.751052062708
 20
2512.105750240029
 30
0.0
 10
4009.183568876178
 20
2512.105750240029
 30
0.0
 10
4029.931105220815
 20
2517.5310866102
 30
0.0
 10
4051.063665436887
 20
2528.434262605739
 30
0.0
  0
SPLINE
  5
D9
330
75
100
AcDbEntity
  8
0
 62
    19
370
    15
100
AcDbSpline
210
0.0
220
0.0
230
1.0
 70
     8
 71
     3
 72
     8
 73
     4
 74
     0
 42
0.000000001
 43
0.00000001
 40
9.0
 40
9.0
 40
9.0
 40
9.0
 40
10.0
 40
10.0
 40
10.0
 40
10.0
 10
4051.063665436887
 20
2528.434262605739
 30
0.0
 10
4072.161223482828
 20
2539.319937516212
 30
0.0
 10
4092.943761997597
 20
2552.253239379299
 30
0.0
 10
4113.376278811065
 20
2567.251669280063
 30
0.0
  0
SPLINE
  5
DA
330
75
100
AcDbEntity
  8
0
 62
    19
370
    15
100
AcDbSpline
210
0.0
220
0.0
230
1.0
 70
     8
 71
     3
 72
     8
 73
     4
 74
     0
 42
0.000000001
 43
0.00000001
 40
15.0
 40
15.0
 40
15.0
 40
15.0
 40
16.0
 40
16.0
 40
16.0
 40
16.0
 10
4113.376278811065
 20
2444.674069484318
 30
0.0
 10
4073.858828734139
 20
2406.539205127532
 30
0.0
 10
4030.281126922118
 20
2375.212262861058
 30
0.0
 10
3982.625672289933
 20
2350.693242684896
 30
0.0
  0
SPLINE
  5
DB
330
75
100
AcDbEntity
  8
0
 62
    19
370
    15
100
AcDbSpline
210
0.0
220
0.0
230
1.0
 70
     8
 71
     3
 72
     8
 73
     4
 74
     0
 42
0.000000001
 43
0.00000001
 40
16.0
 40
16.0
 40
16.0
 40
16.0
 40
17.0
 40
17.0
 40
17.0
 40
17.0
 10
3982.625672289933
 20
2350.693242684896
 30
0.0
 10
3934.935215487621
 20
2326.191723593799
 30
0.0
 10
3883.858298725215
 20
2313.923462963186
 30
0.0
 10
3829.39492200272
 20
2313.923462963186
 30
0.0
  0
SPLINE
  5
DC
330
75
100
AcDbEntity
  8
0
 62
    19
370
    15
100
AcDbSpline
210
0.0
220
0.0
230
1.0
 70
     8
 71
     3
 72
     8
 73
     4
 74
     0
 42
0.000000001
 43
0.00000001
 40
0.0
 40
0.0
 40
0.0
 40
0.0
 40
1.0
 40
1.0
 40
1.0
 40
1.0
 10
4963.24647065589
 20
2313.923462963186
 30
0.0
 10
4874.699730769172
 20
2313.923462963186
 30
0.0
 10
4802.516505418294
 20
2330.619498115262
 30
0.0
 10
4746.688044060724
 20
2363.976566249284
 30
0.0
  0
SPLINE
  5
DD
330
75
100
AcDbEntity
  8
0
 62
    19
370
    15
100
AcDbSpline
210
0.0
220
0.0
230
1.0
 70
     8
 71
     3
 72
     8
 73
     4
 74
     0
 42
0.000000001
 43
0.00000001
 40
1.0
 40
1.0
 40
1.0
 40
1.0
 40
2.0
 40
2.0
 40
2.0
 40
2.0
 10
4746.688044060724
 20
2363.976566249284
 30
0.0
 10
4690.824580533023
 20
2397.333634383306
 30
0.0
 10
4649.644527374914
 20
2446.37167473563
 30
0.0
 10
4623.086630788673
 20
2511.07318622119
 30
0.0
  0
SPLINE
  5
DE
330
75
100
AcDbEntity
  8
0
 62
    19
370
    15
100
AcDbSpline
210
0.0
220
0.0
230
1.0
 70
     8
 71
     3
 72
     8
 73
     4
 74
     0
 42
0.000000001
 43
0.00000001
 40
2.0
 40
2.0
 40
2.0
 40
2.0
 40
3.0
 40
3.0
 40
3.0
 40
3.0
 10
4623.086630788673
 20
2511.07318622119
 30
0.0
 10
4596.52873420243
 20
2575.757196621686
 30
0.0
 10
4583.245410638045
 20
2653.742031671633
 30
0.0
 10
4583.245410638045
 20
2744.992689200906
 30
0.0
  0
SPLINE
  5
DF
330
75
100
AcDbEntity
  8
0
 62
    19
370
    15
100
AcDbSpline
210
0.0
220
0.0
230
1.0
 70
     8
 71
     3
 72
     8
 73
     4
 74
     0
 42
0.000000001
 43
0.00000001
 40
4.0
 40
4.0
 40
4.0
 40
4.0
 40
5.0
 40
5.0
 40
5.0
 40
5.0
 10
4583.245410638045
 20
3100.479104313855
 30
0.0
 10
4583.245410638045
 20
3194.459931113278
 30
0.0
 10
4596.52873420243
 20
3273.433577469404
 30
0.0
 10
4623.086630788673
 20
3337.470047722491
 30
0.0
  0
SPLINE
  5
E0
330
75
100
AcDbEntity
  8
0
 62
    19
370
    15
100
AcDbSpline
210
0.0
220
0.0
230
1.0
 70
     8
 71
     3
 72
     8
 73
     4
 74
     0
 42
0.000000001
 43
0.00000001
 40
5.0
 40
5.0
 40
5.0
 40
5.0
 40
6.0
 40
6.0
 40
6.0
 40
6.0
 10
4623.086630788673
 20
3337.470047722491
 30
0.0
 10
4649.644527374914
 20
3401.471515805448
 30
0.0
 10
4691.174602234325
 20
3449.835764382767
 30
0.0
 10
4747.71185753703
 20
3482.527791284315
 30
0.0
  0
SPLINE
  5
E1
330
75
100
AcDbEntity
  8
0
 62
    19
370
    15
100
AcDbSpline
210
0.0
220
0.0
230
1.0
 70
     8
 71
     3
 72
     8
 73
     4
 74
     0
 42
0.000000001
 43
0.00000001
 40
6.0
 40
6.0
 40
6.0
 40
6.0
 40
7.0
 40
7.0
 40
7.0
 40
7.0
 10
4747.71185753703
 20
3482.527791284315
 30
0.0
 10
4804.214110669605
 20
3515.211067643334
 30
0.0
 10
4876.064815404247
 20
3531.557081094106
 30
0.0
 10
4963.24647065589
 20
3531.557081094106
 30
0.0
  0
SPLINE
  5
E2
330
75
100
AcDbEntity
  8
0
 62
    19
370
    15
100
AcDbSpline
210
0.0
220
0.0
230
1.0
 70
     8
 71
     3
 72
     8
 73
     4
 74
     0
 42
0.000000001
 43
0.00000001
 40
7.0
 40
7.0
 40
7.0
 40
7.0
 40
8.0
 40
8.0
 40
8.0
 40
8.0
 10
4963.24647065589
 20
3531.557081094106
 30
0.0
 10
5057.227297455311
 20
3531.557081094106
 30
0.0
 10
5130.425585739962
 20
3513.837232465724
 30
0.0
 10
5182.867587137442
 20
3478.441287921623
 30
0.0
  0
SPLINE
  5
E3
330
75
100
AcDbEntity
  8
0
 62
    19
370
    15
100
AcDbSpline
210
0.0
220
0.0
230
1.0
 70
     8
 71
     3
 72
     8
 73
     4
 74
     0
 42
0.000000001
 43
0.00000001
 40
8.0
 40
8.0
 40
8.0
 40
8.0
 40
9.0
 40
9.0
 40
9.0
 40
9.0
 10
5182.867587137442
 20
3478.441287921623
 30
0.0
 10
5235.283336907325
 20
3443.01034120739
 30
0.0
 10
5272.76191057417
 20
3391.609654371282
 30
0.0
 10
5295.233303797721
 20
3324.195474700636
 30
0.0
  0
SPLINE
  5
E4
330
75
100
AcDbEntity
  8
0
 62
    19
370
    15
100
AcDbSpline
210
0.0
220
0.0
230
1.0
 70
     8
 71
     3
 72
     8
 73
     4
 74
     0
 42
0.000000001
 43
0.00000001
 40
9.0
 40
9.0
 40
9.0
 40
9.0
 40
10.0
 40
10.0
 40
10.0
 40
10.0
 10
5295.233303797721
 20
3324.195474700636
 30
0.0
 10
5317.713447563799
 20
3256.772544487456
 30
0.0
 10
5328.949144175574
 20
3174.701206074815
 30
0.0
 10
5328.949144175574
 20
3078.007711090308
 30
0.0
  0
SPLINE
  5
E5
330
75
100
AcDbEntity
  8
0
 62
    19
370
    15
100
AcDbSpline
210
0.0
220
0.0
230
1.0
 70
     8
 71
     3
 72
     8
 73
     4
 74
     0
 42
0.000000001
 43
0.00000001
 40
13.0
 40
13.0
 40
13.0
 40
13.0
 40
14.0
 40
14.0
 40
14.0
 40
14.0
 10
4859.053760720999
 20
2677.578509530259
 30
0.0
 10
4859.053760720999
 20
2639.426144088407
 30
0.0
 10
4862.790242382393
 20
2608.116702906997
 30
0.0
 10
4870.289457332775
 20
2583.597682730838
 30
0.0
  0
SPLINE
  5
E6
330
75
100
AcDbEntity
  8
0
 62
    19
370
    15
100
AcDbSpline
210
0.0
220
0.0
230
1.0
 70
     8
 71
     3
 72
     8
 73
     4
 74
     0
 42
0.000000001
 43
0.00000001
 40
14.0
 40
14.0
 40
14.0
 40
14.0
 40
15.0
 40
15.0
 40
15.0
 40
15.0
 10
4870.289457332775
 20
2583.597682730838
 30
0.0
 10
4877.762420655558
 20
2559.078662554674
 30
0.0
 10
4889.698160669937
 20
2541.367564468825
 30
0.0
 10
4906.044174120711
 20
2530.481889558352
 30
0.0
  0
SPLINE
  5
E7
330
75
100
AcDbEntity
  8
0
 62
    19
370
    15
100
AcDbSpline
210
0.0
220
0.0
230
1.0
 70
     8
 71
     3
 72
     8
 73
     4
 74
     0
 42
0.000000001
 43
0.00000001
 40
15.0
 40
15.0
 40
15.0
 40
15.0
 40
16.0
 40
16.0
 40
16.0
 40
16.0
 10
4906.044174120711
 20
2530.481889558352
 30
0.0
 10
4922.390187571485
 20
2519.561212477749
 30
0.0
 10
4942.11391043982
 20
2514.135876107577
 30
0.0
 10
4965.294097608502
 20
2514.135876107577
 30
0.0
  0
SPLINE
  5
E8
330
75
100
AcDbEntity
  8
0
 62
    19
370
    15
100
AcDbSpline
210
0.0
220
0.0
230
1.0
 70
     8
 71
     3
 72
     8
 73
     4
 74
     0
 42
0.000000001
 43
0.00000001
 40
16.0
 40
16.0
 40
16.0
 40
16.0
 40
17.0
 40
17.0
 40
17.0
 40
17.0
 10
4965.294097608502
 20
2514.135876107577
 30
0.0
 10
4989.804367242131
 20
2514.135876107577
 30
0.0
 10
5009.536840652999
 20
2519.91123417905
 30
0.0
 10
5024.535270553762
 20
2531.514453577191
 30
0.0
  0
SPLINE
  5
E9
330
75
100
AcDbEntity
  8
0
 62
    19
370
    15
100
AcDbSpline
210
0.0
220
0.0
230
1.0
 70
     8
 71
     3
 72
     8
 73
     4
 74
     0
 42
0.000000001
 43
0.00000001
 40
17.0
 40
17.0
 40
17.0
 40
17.0
 40
18.0
 40
18.0
 40
18.0
 40
18.0
 10
5024.535270553762
 20
2531.514453577191
 30
0.0
 10
5039.507448826928
 20
2543.065169720136
 30
0.0
 10
5050.393123737402
 20
2560.111226573514
 30
0.0
 10
5057.227297455311
 20
2582.582619797061
 30
0.0
  0
SPLINE
  5
EA
330
75
100
AcDbEntity
  8
0
 62
    19
370
    15
100
AcDbSpline
210
0.0
220
0.0
230
1.0
 70
     8
 71
     3
 72
     8
 73
     4
 74
     0
 42
0.000000001
 43
0.00000001
 40
18.0
 40
18.0
 40
18.0
 40
18.0
 40
19.0
 40
19.0
 40
19.0
 40
19.0
 10
5057.227297455311
 20
2582.582619797061
 30
0.0
 10
5064.02646900309
 20
2605.054013020611
 30
0.0
 10
5067.43918059078
 20
2633.300764315635
 30
0.0
 10
5067.43918059078
 20
2667.357875852258
 30
0.0
  0
SPLINE
  5
EB
330
75
100
AcDbEntity
  8
0
 62
    19
370
    15
100
AcDbSpline
210
0.0
220
0.0
230
1.0
 70
     8
 71
     3
 72
     8
 73
     4
 74
     0
 42
0.000000001
 43
0.00000001
 40
22.0
 40
22.0
 40
22.0
 40
22.0
 40
23.0
 40
23.0
 40
23.0
 40
23.0
 10
5326.901517222963
 20
2685.751516255645
 30
0.0
 10
5326.901517222963
 20
2565.886584644988
 30
0.0
 10
5296.930909049031
 20
2473.953384798178
 30
0.0
 10
5237.007193786233
 20
2409.951916715221
 30
0.0
  0
SPLINE
  5
EC
330
75
100
AcDbEntity
  8
0
 62
    19
370
    15
100
AcDbSpline
210
0.0
220
0.0
230
1.0
 70
     8
 71
     3
 72
     8
 73
     4
 74
     0
 42
0.000000001
 43
0.00000001
 40
23.0
 40
23.0
 40
23.0
 40
23.0
 40
24.0
 40
24.0
 40
24.0
 40
24.0
 10
5237.007193786233
 20
2409.951916715221
 30
0.0
 10
5177.057226895839
 20
2345.915446462132
 30
0.0
 10
5085.824070451635
 20
2313.923462963186
 30
0.0
 10
4963.24647065589
 20
2313.923462963186
 30
0.0
  0
SPLINE
  5
ED
330
75
100
AcDbEntity
  8
0
 62
    19
370
    15
100
AcDbSpline
210
0.0
220
0.0
230
1.0
 70
     8
 71
     3
 72
     8
 73
     4
 74
     0
 42
0.000000001
 43
0.00000001
 40
2.0
 40
2.0
 40
2.0
 40
2.0
 40
3.0
 40
3.0
 40
3.0
 40
3.0
 10
5067.43918059078
 20
3159.729027801647
 30
0.0
 10
5067.43918059078
 20
3200.594061428585
 30
0.0
 10
5064.02646900309
 20
3233.601107861304
 30
0.0
 10
5057.227297455311
 20
3258.820171440068
 30
0.0
  0
SPLINE
  5
EE
330
75
100
AcDbEntity
  8
0
 62
    19
370
    15
100
AcDbSpline
210
0.0
220
0.0
230
1.0
 70
     8
 71
     3
 72
     8
 73
     4
 74
     0
 42
0.000000001
 43
0.00000001
 40
3.0
 40
3.0
 40
3.0
 40
3.0
 40
4.0
 40
4.0
 40
4.0
 40
4.0
 10
5057.227297455311
 20
3258.820171440068
 30
0.0
 10
5050.393123737402
 20
3284.004232848703
 30
0.0
 10
5039.507448826928
 20
3302.389122709558
 30
0.0
 10
5024.535270553762
 20
3313.974841022635
 30
0.0
  0
SPLINE
  5
EF
330
75
100
AcDbEntity
  8
0
 62
    19
370
    15
100
AcDbSpline
210
0.0
220
0.0
230
1.0
 70
     8
 71
     3
 72
     8
 73
     4
 74
     0
 42
0.000000001
 43
0.00000001
 40
4.0
 40
4.0
 40
4.0
 40
4.0
 40
5.0
 40
5.0
 40
5.0
 40
5.0
 10
5024.535270553762
 20
3313.974841022635
 30
0.0
 10
5009.536840652999
 20
3325.534307708113
 30
0.0
 10
4988.430532064524
 20
3331.344667949716
 30
0.0
 10
4961.20759424581
 20
3331.344667949716
 30
0.0
  0
SPLINE
  5
F0
330
75
100
AcDbEntity
  8
0
 62
    19
370
    15
100
AcDbSpline
210
0.0
220
0.0
230
1.0
 70
     8
 71
     3
 72
     8
 73
     4
 74
     0
 42
0.000000001
 43
0.00000001
 40
5.0
 40
5.0
 40
5.0
 40
5.0
 40
6.0
 40
6.0
 40
6.0
 40
6.0
 10
4961.20759424581
 20
3331.344667949716
 30
0.0
 10
4936.688574069648
 20
3331.344667949716
 30
0.0
 10
4916.929849031185
 20
3325.21053763441
 30
0.0
 10
4901.957670758017
 20
3312.959778088861
 30
0.0
  0
SPLINE
  5
F1
330
75
100
AcDbEntity
  8
0
 62
    19
370
    15
100
AcDbSpline
210
0.0
220
0.0
230
1.0
 70
     8
 71
     3
 72
     8
 73
     4
 74
     0
 42
0.000000001
 43
0.00000001
 40
6.0
 40
6.0
 40
6.0
 40
6.0
 40
7.0
 40
7.0
 40
7.0
 40
7.0
 10
4901.957670758017
 20
3312.959778088861
 30
0.0
 10
4886.950490314722
 20
3300.70026800078
 30
0.0
 10
4876.064815404247
 20
3280.267751187312
 30
0.0
 10
4869.265643856469
 20
3251.662227648456
 30
0.0
  0
SPLINE
  5
F2
330
75
100
AcDbEntity
  8
0
 62
    19
370
    15
100
AcDbSpline
210
0.0
220
0.0
230
1.0
 70
     8
 71
     3
 72
     8
 73
     4
 74
     0
 42
0.000000001
 43
0.00000001
 40
7.0
 40
7.0
 40
7.0
 40
7.0
 40
8.0
 40
8.0
 40
8.0
 40
8.0
 10
4869.265643856469
 20
3251.662227648456
 30
0.0
 10
4862.440220681092
 20
3223.065454652132
 30
0.0
 10
4859.053760720999
 20
3182.200421025197
 30
0.0
 10
4859.053760720999
 20
3129.084627852711
 30
0.0
  0
SPLINE
  5
F3
330
75
100
AcDbEntity
  8
0
 62
    19
370
    15
100
AcDbSpline
210
0.0
220
0.0
230
1.0
 70
     8
 71
     3
 72
     8
 73
     4
 74
     0
 42
0.000000001
 43
0.00000001
 40
0.0
 40
0.0
 40
0.0
 40
0.0
 40
1.0
 40
1.0
 40
1.0
 40
1.0
 10
6963.340476232255
 20
2309.845710143024
 30
0.0
 10
6863.908061435064
 20
2309.845710143024
 30
0.0
 10
6780.812909546114
 20
2329.254413480186
 30
0.0
 10
6714.09002273554
 20
2368.07182015451
 30
0.0
  0
SPLINE
  5
F4
330
75
100
AcDbEntity
  8
0
 62
    19
370
    15
100
AcDbSpline
210
0.0
220
0.0
230
1.0
 70
     8
 71
     3
 72
     8
 73
     4
 74
     0
 42
0.000000001
 43
0.00000001
 40
1.0
 40
1.0
 40
1.0
 40
1.0
 40
2.0
 40
2.0
 40
2.0
 40
2.0
 10
6714.09002273554
 20
2368.07182015451
 30
0.0
 10
6647.349634839898
 20
2406.889226828834
 30
0.0
 10
6596.937759309968
 20
2463.732751120178
 30
0.0
 10
6562.915649943475
 20
2538.654896283739
 30
0.0
  0
SPLINE
  5
F5
330
75
100
AcDbEntity
  8
0
 62
    19
370
    15
100
AcDbSpline
210
0.0
220
0.0
230
1.0
 70
     8
 71
     3
 72
     8
 73
     4
 74
     0
 42
0.000000001
 43
0.00000001
 40
2.0
 40
2.0
 40
2.0
 40
2.0
 40
3.0
 40
3.0
 40
3.0
 40
3.0
 10
6562.915649943475
 20
2538.654896283739
 30
0.0
 10
6528.849787864314
 20
2613.542039277169
 30
0.0
 10
6509.791106228454
 20
2705.475239123978
 30
0.0
 10
6505.704602865762
 20
2814.454495824165
 30
0.0
  0
SPLINE
  5
F6
330
75
100
AcDbEntity
  8
0
 62
    19
370
    15
100
AcDbSpline
210
0.0
220
0.0
230
1.0
 70
     8
 71
     3
 72
     8
 73
     4
 74
     0
 42
0.000000001
 43
0.00000001
 40
4.0
 40
4.0
 40
4.0
 40
4.0
 40
5.0
 40
5.0
 40
5.0
 40
5.0
 10
6765.166939497946
 20
2865.540163129101
 30
0.0
 10
6767.879607683029
 20
2801.503692876013
 30
0.0
 10
6775.702592707114
 20
2744.992689200906
 30
0.0
 10
6788.662146197797
 20
2695.972149933646
 30
0.0
  0
SPLINE
  5
F7
330
75
100
AcDbEntity
  8
0
 62
    19
370
    15
100
AcDbSpline
210
0.0
220
0.0
230
1.0
 70
     8
 71
     3
 72
     8
 73
     4
 74
     0
 42
0.000000001
 43
0.00000001
 40
5.0
 40
5.0
 40
5.0
 40
5.0
 40
6.0
 40
6.0
 40
6.0
 40
6.0
 10
6788.662146197797
 20
2695.972149933646
 30
0.0
 10
6801.595448060885
 20
2646.934109581322
 30
0.0
 10
6821.354173099349
 20
2609.131765840774
 30
0.0
 10
6847.912069685591
 20
2582.582619797061
 30
0.0
  0
SPLINE
  5
F8
330
75
100
AcDbEntity
  8
0
 62
    19
370
    15
100
AcDbSpline
210
0.0
220
0.0
230
1.0
 70
     8
 71
     3
 72
     8
 73
     4
 74
     0
 42
0.000000001
 43
0.00000001
 40
6.0
 40
6.0
 40
6.0
 40
6.0
 40
7.0
 40
7.0
 40
7.0
 40
7.0
 10
6847.912069685591
 20
2582.582619797061
 30
0.0
 10
6874.469966271837
 20
2556.015972668288
 30
0.0
 10
6909.524639657166
 20
2542.750150188965
 30
0.0
 10
6953.128593096787
 20
2542.750150188965
 30
0.0
  0
SPLINE
  5
F9
330
75
100
AcDbEntity
  8
0
 62
    19
370
    15
100
AcDbSpline
210
0.0
220
0.0
230
1.0
 70
     8
 71
     3
 72
     8
 73
     4
 74
     0
 42
0.000000001
 43
0.00000001
 40
7.0
 40
7.0
 40
7.0
 40
7.0
 40
8.0
 40
8.0
 40
8.0
 40
8.0
 10
6953.128593096787
 20
2542.750150188965
 30
0.0
 10
7002.157882906578
 20
2542.750150188965
 30
0.0
 10
7036.888786218209
 20
2557.363556218297
 30
0.0
 10
7057.321303031677
 20
2586.660372617224
 30
0.0
  0
SPLINE
  5
FA
330
75
100
AcDbEntity
  8
0
 62
    19
370
    15
100
AcDbSpline
210
0.0
220
0.0
230
1.0
 70
     8
 71
     3
 72
     8
 73
     4
 74
     0
 42
0.000000001
 43
0.00000001
 40
8.0
 40
8.0
 40
8.0
 40
8.0
 40
9.0
 40
9.0
 40
9.0
 40
9.0
 10
7057.321303031677
 20
2586.660372617224
 30
0.0
 10
7077.753819845144
 20
2615.939687931085
 30
0.0
 10
7087.965702980612
 20
2653.059489354097
 30
0.0
 10
7087.965702980612
 20
2698.002275801194
 30
0.0
  0
SPLINE
  5
FB
330
75
100
AcDbEntity
  8
0
 62
    19
370
    15
100
AcDbSpline
210
0.0
220
0.0
230
1.0
 70
     8
 71
     3
 72
     8
 73
     4
 74
     0
 42
0.000000001
 43
0.00000001
 40
9.0
 40
9.0
 40
9.0
 40
9.0
 40
10.0
 40
10.0
 40
10.0
 40
10.0
 10
7087.965702980612
 20
2698.002275801194
 30
0.0
 10
7087.965702980612
 20
2770.194251694604
 30
0.0
 10
7071.619689529838
 20
2829.435424639863
 30
0.0
 10
7038.936413170821
 20
2875.760796807101
 30
0.0
  0
SPLINE
  5
FC
330
75
100
AcDbEntity
  8
0
 62
    19
370
    15
100
AcDbSpline
210
0.0
220
0.0
230
1.0
 70
     8
 71
     3
 72
     8
 73
     4
 74
     0
 42
0.000000001
 43
0.00000001
 40
10.0
 40
10.0
 40
10.0
 40
10.0
 40
11.0
 40
11.0
 40
11.0
 40
11.0
 10
7038.936413170821
 20
2875.760796807101
 30
0.0
 10
7006.244386269273
 20
2922.033665719144
 30
0.0
 10
6962.640432829652
 20
2968.359037886383
 30
0.0
 10
6908.177056107157
 20
3014.680034782355
 30
0.0
  0
SPLINE
  5
FD
330
75
100
AcDbEntity
  8
0
 62
    19
370
    15
100
AcDbSpline
210
0.0
220
0.0
230
1.0
 70
     8
 71
     3
 72
     8
 73
     4
 74
     0
 42
0.000000001
 43
0.00000001
 40
12.0
 40
12.0
 40
12.0
 40
12.0
 40
13.0
 40
13.0
 40
13.0
 40
13.0
 10
6699.791636237378
 20
3198.54643447597
 30
0.0
 10
6641.215504524592
 20
3248.923307835773
 30
0.0
 10
6594.575112826183
 20
3305.101790894646
 30
0.0
 10
6559.844209514553
 20
3367.099384737653
 30
0.0
  0
SPLINE
  5
FE
330
75
100
AcDbEntity
  8
0
 62
    19
370
    15
100
AcDbSpline
210
0.0
220
0.0
230
1.0
 70
     8
 71
     3
 72
     8
 73
     4
 74
     0
 42
0.000000001
 43
0.00000001
 40
13.0
 40
13.0
 40
13.0
 40
13.0
 40
14.0
 40
14.0
 40
14.0
 40
14.0
 10
6559.844209514553
 20
3367.099384737653
 30
0.0
 10
6525.113306202923
 20
3429.053225867998
 30
0.0
 10
6507.752229818374
 20
3505.67297628287
 30
0.0
 10
6507.752229818374
 20
3596.932384354674
 30
0.0
  0
SPLINE
  5
FF
330
75
100
AcDbEntity
  8
0
 62
    19
370
    15
100
AcDbSpline
210
0.0
220
0.0
230
1.0
 70
     8
 71
     3
 72
     8
 73
     4
 74
     0
 42
0.000000001
 43
0.00000001
 40
14.0
 40
14.0
 40
14.0
 40
14.0
 40
15.0
 40
15.0
 40
15.0
 40
15.0
 10
6507.752229818374
 20
3596.932384354674
 30
0.0
 10
6507.752229818374
 20
3727.682990875805
 30
0.0
 10
6545.869593090097
 20
3828.462989223005
 30
0.0
 10
6622.156822888732
 20
3899.298631023874
 30
0.0
  0
SPLINE
  5
100
330
75
100
AcDbEntity
  8
0
 62
    19
370
    15
100
AcDbSpline
210
0.0
220
0.0
230
1.0
 70
     8
 71
     3
 72
     8
 73
     4
 74
     0
 42
0.000000001
 43
0.00000001
 40
15.0
 40
15.0
 40
15.0
 40
15.0
 40
16.0
 40
16.0
 40
16.0
 40
16.0
 10
6622.156822888732
 20
3899.298631023874
 30
0.0
 10
6698.41780105977
 20
3970.09927065461
 30
0.0
 10
6802.61051099466
 20
4005.538967911375
 30
0.0
 10
6934.734952693399
 20
4005.538967911375
 30
0.0
  0
SPLINE
  5
101
330
75
100
AcDbEntity
  8
0
 62
    19
370
    15
100
AcDbSpline
210
0.0
220
0.0
230
1.0
 70
     8
 71
     3
 72
     8
 73
     4
 74
     0
 42
0.000000001
 43
0.00000001
 40
16.0
 40
16.0
 40
16.0
 40
16.0
 40
17.0
 40
17.0
 40
17.0
 40
17.0
 10
6934.734952693399
 20
4005.538967911375
 30
0.0
 10
7012.369766042048
 20
4005.538967911375
 30
0.0
 10
7077.045025900009
 20
3993.594477354467
 30
0.0
 10
7128.821986065016
 20
3969.784251123439
 30
0.0
  0
SPLINE
  5
102
330
75
100
AcDbEntity
  8
0
 62
    19
370
    15
100
AcDbSpline
210
0.0
220
0.0
230
1.0
 70
     8
 71
     3
 72
     8
 73
     4
 74
     0
 42
0.000000001
 43
0.00000001
 40
17.0
 40
17.0
 40
17.0
 40
17.0
 40
18.0
 40
18.0
 40
18.0
 40
18.0
 10
7128.821986065016
 20
3969.784251123439
 30
0.0
 10
7180.572694602426
 20
3945.939022722282
 30
0.0
 10
7221.778999388132
 20
3912.896974119432
 30
0.0
 10
7252.423399337069
 20
3870.693107485018
 30
0.0
  0
SPLINE
  5
103
330
75
100
AcDbEntity
  8
0
 62
    19
370
    15
100
AcDbSpline
210
0.0
220
0.0
230
1.0
 70
     8
 71
     3
 72
     8
 73
     4
 74
     0
 42
0.000000001
 43
0.00000001
 40
18.0
 40
18.0
 40
18.0
 40
18.0
 40
19.0
 40
19.0
 40
19.0
 40
19.0
 10
7252.423399337069
 20
3870.693107485018
 30
0.0
 10
7283.067799286004
 20
3828.462989223005
 30
0.0
 10
7305.862962583256
 20
3780.457512889522
 30
0.0
 10
7320.870143026554
 20
3726.667927942031
 30
0.0
  0
SPLINE
  5
104
330
75
100
AcDbEntity
  8
0
 62
    19
370
    15
100
AcDbSpline
210
0.0
220
0.0
230
1.0
 70
     8
 71
     3
 72
     8
 73
     4
 74
     0
 42
0.000000001
 43
0.00000001
 40
19.0
 40
19.0
 40
19.0
 40
19.0
 40
20.0
 40
20.0
 40
20.0
 40
20.0
 10
7320.870143026554
 20
3726.667927942031
 30
0.0
 10
7335.842321299719
 20
3672.843340824411
 30
0.0
 10
7345.380412660183
 20
3615.991065990534
 30
0.0
 10
7349.466916022876
 20
3556.076101270268
 30
0.0
  0
SPLINE
  5
105
330
75
100
AcDbEntity
  8
0
 62
    19
370
    15
100
AcDbSpline
210
0.0
220
0.0
230
1.0
 70
     8
 71
     3
 72
     8
 73
     4
 74
     0
 42
0.000000001
 43
0.00000001
 40
21.0
 40
21.0
 40
21.0
 40
21.0
 40
22.0
 40
22.0
 40
22.0
 40
22.0
 10
7092.052206343307
 20
3511.124564280639
 30
0.0
 10
7089.304535988091
 20
3562.87527281805
 30
0.0
 10
7083.52917791662
 20
3609.191894442754
 30
0.0
 10
7074.682379416226
 20
3650.048177527158
 30
0.0
  0
SPLINE
  5
106
330
75
100
AcDbEntity
  8
0
 62
    19
370
    15
100
AcDbSpline
210
0.0
220
0.0
230
1.0
 70
     8
 71
     3
 72
     8
 73
     4
 74
     0
 42
0.000000001
 43
0.00000001
 40
22.0
 40
22.0
 40
22.0
 40
22.0
 40
23.0
 40
23.0
 40
23.0
 40
23.0
 10
7074.682379416226
 20
3650.048177527158
 30
0.0
 10
7065.809329288234
 20
3690.913211154095
 30
0.0
 10
7050.172109782597
 20
3722.896444110508
 30
0.0
 10
7027.691966016514
 20
3746.076631279193
 30
0.0
  0
SPLINE
  5
107
330
75
100
AcDbEntity
  8
0
 62
    19
370
    15
100
AcDbSpline
210
0.0
220
0.0
230
1.0
 70
     8
 71
     3
 72
     8
 73
     4
 74
     0
 42
0.000000001
 43
0.00000001
 40
23.0
 40
23.0
 40
23.0
 40
23.0
 40
24.0
 40
24.0
 40
24.0
 40
24.0
 10
7027.691966016514
 20
3746.076631279193
 30
0.0
 10
7005.220572792964
 20
3769.213065735215
 30
0.0
 10
6972.187274732647
 20
3780.807534590823
 30
0.0
 10
6928.609572920624
 20
3780.807534590823
 30
0.0
  0
SPLINE
  5
108
330
75
100
AcDbEntity
  8
0
 62
    19
370
    15
100
AcDbSpline
210
0.0
220
0.0
230
1.0
 70
     8
 71
     3
 72
     8
 73
     4
 74
     0
 42
0.000000001
 43
0.00000001
 40
24.0
 40
24.0
 40
24.0
 40
24.0
 40
25.0
 40
25.0
 40
25.0
 40
25.0
 10
6928.609572920624
 20
3780.807534590823
 30
0.0
 10
6883.666786473528
 20
3780.807534590823
 30
0.0
 10
6849.250902693071
 20
3766.150375848827
 30
0.0
 10
6825.440676462043
 20
3736.879811077498
 30
0.0
  0
SPLINE
  5
109
330
75
100
AcDbEntity
  8
0
 62
    19
370
    15
100
AcDbSpline
210
0.0
220
0.0
230
1.0
 70
     8
 71
     3
 72
     8
 73
     4
 74
     0
 42
0.000000001
 43
0.00000001
 40
25.0
 40
25.0
 40
25.0
 40
25.0
 40
26.0
 40
26.0
 40
26.0
 40
26.0
 10
6825.440676462043
 20
3736.879811077498
 30
0.0
 10
6801.595448060885
 20
3707.574244136041
 30
0.0
 10
6789.685959674107
 20
3671.154486115632
 30
0.0
 10
6789.685959674107
 20
3627.57678430361
 30
0.0
  0
SPLINE
  5
10A
330
75
100
AcDbEntity
  8
0
 62
    19
370
    15
100
AcDbSpline
210
0.0
220
0.0
230
1.0
 70
     8
 71
     3
 72
     8
 73
     4
 74
     0
 42
0.000000001
 43
0.00000001
 40
26.0
 40
26.0
 40
26.0
 40
26.0
 40
27.0
 40
27.0
 40
27.0
 40
27.0
 10
6789.685959674107
 20
3627.57678430361
 30
0.0
 10
6789.685959674107
 20
3571.713320775909
 30
0.0
 10
6801.245426359585
 20
3525.746720852504
 30
0.0
 10
6824.416862985735
 20
3489.676984533398
 30
0.0
  0
SPLINE
  5
10B
330
75
100
AcDbEntity
  8
0
 62
    19
370
    15
100
AcDbSpline
210
0.0
220
0.0
230
1.0
 70
     8
 71
     3
 72
     8
 73
     4
 74
     0
 42
0.000000001
 43
0.00000001
 40
27.0
 40
27.0
 40
27.0
 40
27.0
 40
28.0
 40
28.0
 40
28.0
 40
28.0
 10
6824.416862985735
 20
3489.676984533398
 30
0.0
 10
6847.56204798429
 20
3453.57224604416
 30
0.0
 10
6880.919116118313
 20
3416.443694078615
 30
0.0
 10
6924.523069557933
 20
3378.335081349428
 30
0.0
  0
SPLINE
  5
10C
330
75
100
AcDbEntity
  8
0
 62
    19
370
    15
100
AcDbSpline
210
0.0
220
0.0
230
1.0
 70
     8
 71
     3
 72
     8
 73
     4
 74
     0
 42
0.000000001
 43
0.00000001
 40
29.0
 40
29.0
 40
29.0
 40
29.0
 40
30.0
 40
30.0
 40
30.0
 40
30.0
 10
7130.869613017629
 20
3196.50755806589
 30
0.0
 10
7198.957584463282
 20
3139.29651098818
 30
0.0
 10
7257.183694474767
 20
3072.197350848704
 30
0.0
 10
7305.547943052085
 20
2995.275706716458
 30
0.0
  0
SPLINE
  5
10D
330
75
100
AcDbEntity
  8
0
 62
    19
370
    15
100
AcDbSpline
210
0.0
220
0.0
230
1.0
 70
     8
 71
     3
 72
     8
 73
     4
 74
     0
 42
0.000000001
 43
0.00000001
 40
30.0
 40
30.0
 40
30.0
 40
30.0
 40
31.0
 40
31.0
 40
31.0
 40
31.0
 10
7305.547943052085
 20
2995.275706716458
 30
0.0
 10
7353.877189459274
 20
2918.305934600285
 30
0.0
 10
7378.072439561732
 20
2825.340170734636
 30
0.0
 10
7378.072439561732
 20
2716.395916204581
 30
0.0
  0
SPLINE
  5
10E
330
75
100
AcDbEntity
  8
0
 62
    19
370
    15
100
AcDbSpline
210
0.0
220
0.0
230
1.0
 70
     8
 71
     3
 72
     8
 73
     4
 74
     0
 42
0.000000001
 43
0.00000001
 40
31.0
 40
31.0
 40
31.0
 40
31.0
 40
32.0
 40
32.0
 40
32.0
 40
32.0
 10
7378.072439561732
 20
2716.395916204581
 30
0.0
 10
7378.072439561732
 20
2637.396018220858
 30
0.0
 10
7360.702612634651
 20
2567.251669280063
 30
0.0
 10
7325.971709323019
 20
2505.96286938219
 30
0.0
  0
SPLINE
  5
10F
330
75
100
AcDbEntity
  8
0
 62
    19
370
    15
100
AcDbSpline
210
0.0
220
0.0
230
1.0
 70
     8
 71
     3
 72
     8
 73
     4
 74
     0
 42
0.000000001
 43
0.00000001
 40
32.0
 40
32.0
 40
32.0
 40
32.0
 40
33.0
 40
33.0
 40
33.0
 40
33.0
 10
7325.971709323019
 20
2505.96286938219
 30
0.0
 10
7291.240806011392
 20
2444.674069484318
 30
0.0
 10
7242.885307976604
 20
2396.668593150833
 30
0.0
 10
7180.922716303728
 20
2361.928939296671
 30
0.0
  0
SPLINE
  5
110
330
75
100
AcDbEntity
  8
0
 62
    19
370
    15
100
AcDbSpline
210
0.0
220
0.0
230
1.0
 70
     8
 71
     3
 72
     8
 73
     4
 74
     0
 42
0.000000001
 43
0.00000001
 40
33.0
 40
33.0
 40
33.0
 40
33.0
 40
34.0
 40
34.0
 40
34.0
 40
34.0
 10
7180.922716303728
 20
2361.928939296671
 30
0.0
 10
7118.925122460721
 20
2327.206786527573
 30
0.0
 10
7046.400625951072
 20
2309.845710143024
 30
0.0
 10
6963.340476232255
 20
2309.845710143024
 30
0.0
  0
SPLINE
  5
111
330
75
100
AcDbEntity
  8
0
 62
    19
370
    15
100
AcDbSpline
210
0.0
220
0.0
230
1.0
 70
     8
 71
     3
 72
     8
 73
     4
 74
     0
 42
0.000000001
 43
0.00000001
 40
1.0
 40
1.0
 40
1.0
 40
1.0
 40
2.0
 40
2.0
 40
2.0
 40
2.0
 10
7529.238061811267
 20
2211.769629438377
 30
0.0
 10
7576.902266985983
 20
2211.769629438377
 30
0.0
 10
7615.719673660306
 20
2214.517299793593
 30
0.0
 10
7645.690281834238
 20
2219.942636163764
 30
0.0
  0
SPLINE
  5
112
330
75
100
AcDbEntity
  8
0
 62
    19
370
    15
100
AcDbSpline
210
0.0
220
0.0
230
1.0
 70
     8
 71
     3
 72
     8
 73
     4
 74
     0
 42
0.000000001
 43
0.00000001
 40
2.0
 40
2.0
 40
2.0
 40
2.0
 40
3.0
 40
3.0
 40
3.0
 40
3.0
 10
7645.690281834238
 20
2219.942636163764
 30
0.0
 10
7675.634638380572
 20
2225.402974704066
 30
0.0
 10
7697.440990371646
 20
2234.958567149594
 30
0.0
 10
7711.065585094803
 20
2248.556910245153
 30
0.0
  0
SPLINE
  5
113
330
75
100
AcDbEntity
  8
0
 62
    19
370
    15
100
AcDbSpline
210
0.0
220
0.0
230
1.0
 70
     8
 71
     3
 72
     8
 73
     4
 74
     0
 42
0.000000001
 43
0.00000001
 40
3.0
 40
3.0
 40
3.0
 40
3.0
 40
4.0
 40
4.0
 40
4.0
 40
4.0
 10
7711.065585094803
 20
2248.556910245153
 30
0.0
 10
7724.663928190362
 20
2262.172754425776
 30
0.0
 10
7731.498101908273
 20
2281.231436061636
 30
0.0
 10
7731.498101908273
 20
2305.750456237799
 30
0.0
  0
SPLINE
  5
114
330
75
100
AcDbEntity
  8
0
 62
    19
370
    15
100
AcDbSpline
210
0.0
220
0.0
230
1.0
 70
     8
 71
     3
 72
     8
 73
     4
 74
     0
 42
0.000000001
 43
0.00000001
 40
4.0
 40
4.0
 40
4.0
 40
4.0
 40
5.0
 40
5.0
 40
5.0
 40
5.0
 10
7731.498101908273
 20
2305.750456237799
 30
0.0
 10
7731.498101908273
 20
2323.479055408714
 30
0.0
 10
7727.061576844277
 20
2351.375785002434
 30
0.0
 10
7718.223528886418
 20
2389.510649359219
 30
0.0
  0
SPLINE
  5
115
330
75
100
AcDbEntity
  8
0
 62
    19
370
    15
100
AcDbSpline
210
0.0
220
0.0
230
1.0
 70
     8
 71
     3
 72
     8
 73
     4
 74
     0
 42
0.000000001
 43
0.00000001
 40
5.0
 40
5.0
 40
5.0
 40
5.0
 40
6.0
 40
6.0
 40
6.0
 40
6.0
 10
7718.223528886418
 20
2389.510649359219
 30
0.0
 10
7709.341728215893
 20
2427.62801263094
 30
0.0
 10
7699.479866781727
 20
2469.193089660479
 30
0.0
 10
7688.594191871252
 20
2514.135876107577
 30
0.0
  0
SPLINE
  5
116
330
75
100
AcDbEntity
  8
0
 62
    19
370
    15
100
AcDbSpline
210
0.0
220
0.0
230
1.0
 70
     8
 71
     3
 72
     8
 73
     4
 74
     0
 42
0.000000001
 43
0.00000001
 40
12.0
 40
12.0
 40
12.0
 40
12.0
 40
13.0
 40
13.0
 40
13.0
 40
13.0
 10
7976.662052042292
 20
2285.326689966863
 30
0.0
 10
7961.654871598997
 20
2215.864883343603
 30
0.0
 10
7936.470810190362
 20
2161.401506621108
 30
0.0
 10
7901.066115103727
 20
2121.884056544182
 30
0.0
  0
SPLINE
  5
117
330
75
100
AcDbEntity
  8
0
 62
    19
370
    15
100
AcDbSpline
210
0.0
220
0.0
230
1.0
 70
     8
 71
     3
 72
     8
 73
     4
 74
     0
 42
0.000000001
 43
0.00000001
 40
13.0
 40
13.0
 40
13.0
 40
13.0
 40
14.0
 40
14.0
 40
14.0
 40
14.0
 10
7901.066115103727
 20
2121.884056544182
 30
0.0
 10
7865.635168389493
 20
2082.401608637386
 30
0.0
 10
7821.392425344998
 20
2054.137356257299
 30
0.0
 10
7768.276632172516
 20
2037.091299403922
 30
0.0
  0
SPLINE
  5
118
330
75
100
AcDbEntity
  8
0
 62
    19
370
    15
100
AcDbSpline
210
0.0
220
0.0
230
1.0
 70
     8
 71
     3
 72
     8
 73
     4
 74
     0
 42
0.000000001
 43
0.00000001
 40
14.0
 40
14.0
 40
14.0
 40
14.0
 40
15.0
 40
15.0
 40
15.0
 40
15.0
 10
7768.276632172516
 20
2037.091299403922
 30
0.0
 10
7715.152088457497
 20
2020.080244720675
 30
0.0
 10
7653.163245157021
 20
2011.557216293986
 30
0.0
 10
7582.362605526286
 20
2011.557216293986
 30
0.0
  0
SPLINE
  5
119
330
75
100
AcDbEntity
  8
0
 62
    19
370
    15
100
AcDbSpline
210
0.0
220
0.0
230
1.0
 70
     8
 71
     3
 72
     8
 73
     4
 74
     0
 42
0.000000001
 43
0.00000001
 40
0.0
 40
0.0
 40
0.0
 40
0.0
 40
1.0
 40
1.0
 40
1.0
 40
1.0
 10
8701.90701713876
 20
2313.923462963186
 30
0.0
 10
8602.465851799037
 20
2313.923462963186
 30
0.0
 10
8520.744535087693
 20
2340.490110091961
 30
0.0
 10
8456.743067004738
 20
2393.605903264445
 30
0.0
  0
SPLINE
  5
11A
330
75
100
AcDbEntity
  8
0
 62
    19
370
    15
100
AcDbSpline
210
0.0
220
0.0
230
1.0
 70
     8
 71
     3
 72
     8
 73
     4
 74
     0
 42
0.000000001
 43
0.00000001
 40
1.0
 40
1.0
 40
1.0
 40
1.0
 40
2.0
 40
2.0
 40
2.0
 40
2.0
 10
8456.743067004738
 20
2393.605903264445
 30
0.0
 10
8392.706596751652
 20
2446.72169643693
 30
0.0
 10
8347.090018529549
 20
2524.356509785578
 30
0.0
 10
8319.8583301683
 20
2626.510343310387
 30
0.0
  0
SPLINE
  5
11B
330
75
100
AcDbEntity
  8
0
 62
    19
370
    15
100
AcDbSpline
210
0.0
220
0.0
230
1.0
 70
     8
 71
     3
 72
     8
 73
     4
 74
     0
 42
0.000000001
 43
0.00000001
 40
3.0
 40
3.0
 40
3.0
 40
3.0
 40
4.0
 40
4.0
 40
4.0
 40
4.0
 10
8526.204873627996
 20
2706.175282526581
 30
0.0
 10
8542.550887078773
 20
2642.138812273493
 30
0.0
 10
8564.32223689972
 20
2593.118273006234
 30
0.0
 10
8591.580176888565
 20
2559.078662554674
 30
0.0
  0
SPLINE
  5
11C
330
75
100
AcDbEntity
  8
0
 62
    19
370
    15
100
AcDbSpline
210
0.0
220
0.0
230
1.0
 70
     8
 71
     3
 72
     8
 73
     4
 74
     0
 42
0.000000001
 43
0.00000001
 40
4.0
 40
4.0
 40
4.0
 40
4.0
 40
5.0
 40
5.0
 40
5.0
 40
5.0
 10
8591.580176888565
 20
2559.078662554674
 30
0.0
 10
8618.81186524981
 20
2525.021551018051
 30
0.0
 10
8654.216560336446
 20
2508.010496334803
 30
0.0
 10
8697.820513776065
 20
2508.010496334803
 30
0.0
  0
SPLINE
  5
11D
330
75
100
AcDbEntity
  8
0
 62
    19
370
    15
100
AcDbSpline
210
0.0
220
0.0
230
1.0
 70
     8
 71
     3
 72
     8
 73
     4
 74
     0
 42
0.000000001
 43
0.00000001
 40
5.0
 40
5.0
 40
5.0
 40
5.0
 40
6.0
 40
6.0
 40
6.0
 40
6.0
 10
8697.820513776065
 20
2508.010496334803
 30
0.0
 10
8730.50379013508
 20
2508.010496334803
 30
0.0
 10
8755.022810311244
 20
2516.18350306019
 30
0.0
 10
8771.368823762017
 20
2532.529516510965
 30
0.0
  0
SPLINE
  5
11E
330
75
100
AcDbEntity
  8
0
 62
    19
370
    15
100
AcDbSpline
210
0.0
220
0.0
230
1.0
 70
     8
 71
     3
 72
     8
 73
     4
 74
     0
 42
0.000000001
 43
0.00000001
 40
6.0
 40
6.0
 40
6.0
 40
6.0
 40
7.0
 40
7.0
 40
7.0
 40
7.0
 10
8771.368823762017
 20
2532.529516510965
 30
0.0
 10
8787.70608667026
 20
2548.875529961739
 30
0.0
 10
8795.879093395648
 20
2571.346923185289
 30
0.0
 10
8795.879093395648
 20
2599.943696181611
 30
0.0
  0
SPLINE
  5
11F
330
75
100
AcDbEntity
  8
0
 62
    19
370
    15
100
AcDbSpline
210
0.0
220
0.0
230
1.0
 70
     8
 71
     3
 72
     8
 73
     4
 74
     0
 42
0.000000001
 43
0.00000001
 40
7.0
 40
7.0
 40
7.0
 40
7.0
 40
8.0
 40
8.0
 40
8.0
 40
8.0
 10
8795.879093395648
 20
2599.943696181611
 30
0.0
 10
8795.879093395648
 20
2632.635723083161
 30
0.0
 10
8785.98222979135
 20
2662.265060098322
 30
0.0
 10
8766.258506923017
 20
2688.814206142034
 30
0.0
  0
SPLINE
  5
120
330
75
100
AcDbEntity
  8
0
 62
    19
370
    15
100
AcDbSpline
210
0.0
220
0.0
230
1.0
 70
     8
 71
     3
 72
     8
 73
     4
 74
     0
 42
0.000000001
 43
0.00000001
 40
8.0
 40
8.0
 40
8.0
 40
8.0
 40
9.0
 40
9.0
 40
9.0
 40
9.0
 10
8766.258506923017
 20
2688.814206142034
 30
0.0
 10
8746.499781884555
 20
2715.380853270808
 30
0.0
 10
8712.792692049232
 20
2748.387899703527
 30
0.0
 10
8665.128486874517
 20
2787.905349780455
 30
0.0
  0
SPLINE
  5
121
330
75
100
AcDbEntity
  8
0
 62
    19
370
    15
100
AcDbSpline
210
0.0
220
0.0
230
1.0
 70
     8
 71
     3
 72
     8
 73
     4
 74
     0
 42
0.000000001
 43
0.00000001
 40
10.0
 40
10.0
 40
10.0
 40
10.0
 40
11.0
 40
11.0
 40
11.0
 40
11.0
 10
8522.118370265303
 20
2908.435322623586
 30
0.0
 10
8470.341410100298
 20
2953.378109070683
 30
0.0
 10
8428.461313539585
 20
2999.353459536621
 30
0.0
 10
8396.478080583174
 20
3046.339497665065
 30
0.0
  0
SPLINE
  5
122
330
75
100
AcDbEntity
  8
0
 62
    19
370
    15
100
AcDbSpline
210
0.0
220
0.0
230
1.0
 70
     8
 71
     3
 72
     8
 73
     4
 74
     0
 42
0.000000001
 43
0.00000001
 40
11.0
 40
11.0
 40
11.0
 40
11.0
 40
12.0
 40
12.0
 40
12.0
 40
12.0
 10
8396.478080583174
 20
3046.339497665065
 30
0.0
 10
8364.459845456628
 20
3093.329911064774
 30
0.0
 10
8348.463853707153
 20
3152.229812851266
 30
0.0
 10
8348.463853707153
 20
3223.065454652132
 30
0.0
  0
SPLINE
  5
123
330
75
100
AcDbEntity
  8
0
 62
    19
370
    15
100
AcDbSpline
210
0.0
220
0.0
230
1.0
 70
     8
 71
     3
 72
     8
 73
     4
 74
     0
 42
0.000000001
 43
0.00000001
 40
12.0
 40
12.0
 40
12.0
 40
12.0
 40
13.0
 40
13.0
 40
13.0
 40
13.0
 10
8348.463853707153
 20
3223.065454652132
 30
0.0
 10
8348.463853707153
 20
3287.066922735091
 30
0.0
 10
8363.086010279021
 20
3341.880321158888
 30
0.0
 10
8392.39157722048
 20
3387.523151008588
 30
0.0
  0
SPLINE
  5
124
330
75
100
AcDbEntity
  8
0
 62
    19
370
    15
100
AcDbSpline
210
0.0
220
0.0
230
1.0
 70
     8
 71
     3
 72
     8
 73
     4
 74
     0
 42
0.000000001
 43
0.00000001
 40
13.0
 40
13.0
 40
13.0
 40
13.0
 40
14.0
 40
14.0
 40
14.0
 40
14.0
 10
8392.39157722048
 20
3387.523151008588
 30
0.0
 10
8421.662141991808
 20
3433.13972923069
 30
0.0
 10
8461.853383843738
 20
3468.544424317325
 30
0.0
 10
8512.92155006361
 20
3493.76348789609
 30
0.0
  0
SPLINE
  5
125
330
75
100
AcDbEntity
  8
0
 62
    19
370
    15
100
AcDbSpline
210
0.0
220
0.0
230
1.0
 70
     8
 71
     3
 72
     8
 73
     4
 74
     0
 42
0.000000001
 43
0.00000001
 40
14.0
 40
14.0
 40
14.0
 40
14.0
 40
15.0
 40
15.0
 40
15.0
 40
15.0
 10
8512.92155006361
 20
3493.76348789609
 30
0.0
 10
8563.998466826013
 20
3518.947549304725
 30
0.0
 10
8620.85074165989
 20
3531.557081094106
 30
0.0
 10
8683.51337673537
 20
3531.557081094106
 30
0.0
  0
SPLINE
  5
126
330
75
100
AcDbEntity
  8
0
 62
    19
370
    15
100
AcDbSpline
210
0.0
220
0.0
230
1.0
 70
     8
 71
     3
 72
     8
 73
     4
 74
     0
 42
0.000000001
 43
0.00000001
 40
15.0
 40
15.0
 40
15.0
 40
15.0
 40
16.0
 40
16.0
 40
16.0
 40
16.0
 10
8683.51337673537
 20
3531.557081094106
 30
0.0
 10
8778.83303654227
 20
3531.557081094106
 30
0.0
 10
8855.452786957145
 20
3503.275327628956
 30
0.0
 10
8913.355126894925
 20
3446.773074496378
 30
0.0
  0
SPLINE
  5
127
330
75
100
AcDbEntity
  8
0
 62
    19
370
    15
100
AcDbSpline
210
0.0
220
0.0
230
1.0
 70
     8
 71
     3
 72
     8
 73
     4
 74
     0
 42
0.000000001
 43
0.00000001
 40
16.0
 40
16.0
 40
16.0
 40
16.0
 40
17.0
 40
17.0
 40
17.0
 40
17.0
 10
8913.355126894925
 20
3446.773074496378
 30
0.0
 10
8971.231215205109
 20
3390.235819193672
 30
0.0
 10
9008.351016628121
 20
3316.337487506418
 30
0.0
 10
9024.697030078896
 20
3225.104331062214
 30
0.0
  0
SPLINE
  5
128
330
75
100
AcDbEntity
  8
0
 62
    19
370
    15
100
AcDbSpline
210
0.0
220
0.0
230
1.0
 70
     8
 71
     3
 72
     8
 73
     4
 74
     0
 42
0.000000001
 43
0.00000001
 40
18.0
 40
18.0
 40
18.0
 40
18.0
 40
19.0
 40
19.0
 40
19.0
 40
19.0
 10
8842.869506795358
 20
3147.469517713566
 30
0.0
 10
8836.04408361998
 20
3180.161544615117
 30
0.0
 10
8826.173471643284
 20
3210.455922862752
 30
0.0
 10
8813.24892032273
 20
3238.387654626601
 30
0.0
  0
SPLINE
  5
129
330
75
100
AcDbEntity
  8
0
 62
    19
370
    15
100
AcDbSpline
210
0.0
220
0.0
230
1.0
 70
     8
 71
     3
 72
     8
 73
     4
 74
     0
 42
0.000000001
 43
0.00000001
 40
19.0
 40
19.0
 40
19.0
 40
19.0
 40
20.0
 40
20.0
 40
20.0
 40
20.0
 10
8813.24892032273
 20
3238.387654626601
 30
0.0
 10
8800.289366832047
 20
3266.28438422032
 30
0.0
 10
8783.6283338501
 20
3289.114549687703
 30
0.0
 10
8763.195817036634
 20
3306.825647773554
 30
0.0
  0
SPLINE
  5
12A
330
75
100
AcDbEntity
  8
0
 62
    19
370
    15
100
AcDbSpline
210
0.0
220
0.0
230
1.0
 70
     8
 71
     3
 72
     8
 73
     4
 74
     0
 42
0.000000001
 43
0.00000001
 40
20.0
 40
20.0
 40
20.0
 40
20.0
 40
21.0
 40
21.0
 40
21.0
 40
21.0
 10
8763.195817036634
 20
3306.825647773554
 30
0.0
 10
8742.763300223163
 20
3324.510494231807
 30
0.0
 10
8718.918071822005
 20
3333.383544359796
 30
0.0
 10
8691.68638346076
 20
3333.383544359796
 30
0.0
  0
SPLINE
  5
12B
330
75
100
AcDbEntity
  8
0
 62
    19
370
    15
100
AcDbSpline
210
0.0
220
0.0
230
1.0
 70
     8
 71
     3
 72
     8
 73
     4
 74
     0
 42
0.000000001
 43
0.00000001
 40
21.0
 40
21.0
 40
21.0
 40
21.0
 40
22.0
 40
22.0
 40
22.0
 40
22.0
 10
8691.68638346076
 20
3333.383544359796
 30
0.0
 10
8663.089610464434
 20
3333.383544359796
 30
0.0
 10
8640.259444997053
 20
3324.510494231807
 30
0.0
 10
8623.248390313807
 20
3306.825647773554
 30
0.0
  0
SPLINE
  5
12C
330
75
100
AcDbEntity
  8
0
 62
    19
370
    15
100
AcDbSpline
210
0.0
220
0.0
230
1.0
 70
     8
 71
     3
 72
     8
 73
     4
 74
     0
 42
0.000000001
 43
0.00000001
 40
22.0
 40
22.0
 40
22.0
 40
22.0
 40
23.0
 40
23.0
 40
23.0
 40
23.0
 10
8623.248390313807
 20
3306.825647773554
 30
0.0
 10
8606.20233346043
 20
3289.114549687703
 30
0.0
 10
8597.71430720387
 20
3266.634405921624
 30
0.0
 10
8597.71430720387
 20
3239.411468102907
 30
0.0
  0
SPLINE
  5
12D
330
75
100
AcDbEntity
  8
0
 62
    19
370
    15
100
AcDbSpline
210
0.0
220
0.0
230
1.0
 70
     8
 71
     3
 72
     8
 73
     4
 74
     0
 42
0.000000001
 43
0.00000001
 40
23.0
 40
23.0
 40
23.0
 40
23.0
 40
24.0
 40
24.0
 40
24.0
 40
24.0
 10
8597.71430720387
 20
3239.411468102907
 30
0.0
 10
8597.71430720387
 20
3216.231280934222
 30
0.0
 10
8607.57616863804
 20
3192.421054703196
 30
0.0
 10
8627.334893676501
 20
3167.902034527036
 30
0.0
  0
SPLINE
  5
12E
330
75
100
AcDbEntity
  8
0
 62
    19
370
    15
100
AcDbSpline
210
0.0
220
0.0
230
1.0
 70
     8
 71
     3
 72
     8
 73
     4
 74
     0
 42
0.000000001
 43
0.00000001
 40
24.0
 40
24.0
 40
24.0
 40
24.0
 40
25.0
 40
25.0
 40
25.0
 40
25.0
 10
8627.334893676501
 20
3167.902034527036
 30
0.0
 10
8647.058616544835
 20
3143.383014350872
 30
0.0
 10
8675.349120552519
 20
3115.451282587023
 30
0.0
 10
8712.118900274227
 20
3084.141841405614
 30
0.0
  0
SPLINE
  5
12F
330
75
100
AcDbEntity
  8
0
 62
    19
370
    15
100
AcDbSpline
210
0.0
220
0.0
230
1.0
 70
     8
 71
     3
 72
     8
 73
     4
 74
     0
 42
0.000000001
 43
0.00000001
 40
26.0
 40
26.0
 40
26.0
 40
26.0
 40
27.0
 40
27.0
 40
27.0
 40
27.0
 10
8857.176643836054
 20
2953.378109070683
 30
0.0
 10
8888.486085017463
 20
2926.12891962437
 30
0.0
 10
8918.465443733925
 20
2896.84960431051
 30
0.0
 10
8947.062216730246
 20
2865.540163129101
 30
0.0
  0
SPLINE
  5
130
330
75
100
AcDbEntity
  8
0
 62
    19
370
    15
100
AcDbSpline
210
0.0
220
0.0
230
1.0
 70
     8
 71
     3
 72
     8
 73
     4
 74
     0
 42
0.000000001
 43
0.00000001
 40
27.0
 40
27.0
 40
27.0
 40
27.0
 40
28.0
 40
28.0
 40
28.0
 40
28.0
 10
8947.062216730246
 20
2865.540163129101
 30
0.0
 10
8975.667740269104
 20
2834.195719777561
 30
0.0
 10
8999.477966500132
 20
2799.14104639223
 30
0.0
 10
9018.571650306121
 20
2760.323639717904
 30
0.0
  0
SPLINE
  5
131
330
75
100
AcDbEntity
  8
0
 62
    19
370
    15
100
AcDbSpline
210
0.0
220
0.0
230
1.0
 70
     8
 71
     3
 72
     8
 73
     4
 74
     0
 42
0.000000001
 43
0.00000001
 40
28.0
 40
28.0
 40
28.0
 40
28.0
 40
29.0
 40
29.0
 40
29.0
 40
29.0
 10
9018.571650306121
 20
2760.323639717904
 30
0.0
 10
9037.630331941982
 20
2721.506233043582
 30
0.0
 10
9047.168423302446
 20
2676.878466127656
 30
0.0
 10
9047.168423302446
 20
2626.510343310387
 30
0.0
  0
SPLINE
  5
132
330
75
100
AcDbEntity
  8
0
 62
    19
370
    15
100
AcDbSpline
210
0.0
220
0.0
230
1.0
 70
     8
 71
     3
 72
     8
 73
     4
 74
     0
 42
0.000000001
 43
0.00000001
 40
29.0
 40
29.0
 40
29.0
 40
29.0
 40
30.0
 40
30.0
 40
30.0
 40
30.0
 10
9047.168423302446
 20
2626.510343310387
 30
0.0
 10
9047.168423302446
 20
2558.378619152073
 30
0.0
 10
9031.846223327977
 20
2501.185073159426
 30
0.0
 10
9001.20182337904
 20
2454.894703162318
 30
0.0
  0
SPLINE
  5
133
330
75
100
AcDbEntity
  8
0
 62
    19
370
    15
100
AcDbSpline
210
0.0
220
0.0
230
1.0
 70
     8
 71
     3
 72
     8
 73
     4
 74
     0
 42
0.000000001
 43
0.00000001
 40
30.0
 40
30.0
 40
30.0
 40
30.0
 40
31.0
 40
31.0
 40
31.0
 40
31.0
 10
9001.20182337904
 20
2454.894703162318
 30
0.0
 10
8970.557423430104
 20
2408.56933099508
 30
0.0
 10
8929.001096943099
 20
2373.497156524681
 30
0.0
 10
8876.585347173215
 20
2349.678179751123
 30
0.0
  0
SPLINE
  5
134
330
75
100
AcDbEntity
  8
0
 62
    19
370
    15
100
AcDbSpline
210
0.0
220
0.0
230
1.0
 70
     8
 71
     3
 72
     8
 73
     4
 74
     0
 42
0.000000001
 43
0.00000001
 40
31.0
 40
31.0
 40
31.0
 40
31.0
 40
32.0
 40
32.0
 40
32.0
 40
32.0
 10
8876.585347173215
 20
2349.678179751123
 30
0.0
 10
8824.134595233205
 20
2325.859202977563
 30
0.0
 10
8765.908485221717
 20
2313.923462963186
 30
0.0
 10
8701.90701713876
 20
2313.923462963186
 30
0.0
  0
SPLINE
  5
135
330
75
100
AcDbEntity
  8
0
 62
    19
370
    15
100
AcDbSpline
210
0.0
220
0.0
230
1.0
 70
     8
 71
     3
 72
     8
 73
     4
 74
     0
 42
0.000000001
 43
0.00000001
 40
0.0
 40
0.0
 40
0.0
 40
0.0
 40
1.0
 40
1.0
 40
1.0
 40
1.0
 10
9539.5176988955
 20
2318.018716868412
 30
0.0
 10
9464.604304274475
 20
2318.018716868412
 30
0.0
 10
9405.704402487983
 20
2330.26947641396
 30
0.0
 10
9362.800492450968
 20
2354.788496590123
 30
0.0
  0
SPLINE
  5
136
330
75
100
AcDbEntity
  8
0
 62
    19
370
    15
100
AcDbSpline
210
0.0
220
0.0
230
1.0
 70
     8
 71
     3
 72
     8
 73
     4
 74
     0
 42
0.000000001
 43
0.00000001
 40
1.0
 40
1.0
 40
1.0
 40
1.0
 40
2.0
 40
2.0
 40
2.0
 40
2.0
 10
9362.800492450968
 20
2354.788496590123
 30
0.0
 10
9319.89658241395
 20
2379.307516766284
 30
0.0
 10
9289.575952538715
 20
2414.694710767854
 30
0.0
 10
9271.891106080464
 20
2461.020082935092
 30
0.0
  0
SPLINE
  5
137
330
75
100
AcDbEntity
  8
0
 62
    19
370
    15
100
AcDbSpline
210
0.0
220
0.0
230
1.0
 70
     8
 71
     3
 72
     8
 73
     4
 74
     0
 42
0.000000001
 43
0.00000001
 40
2.0
 40
2.0
 40
2.0
 40
2.0
 40
3.0
 40
3.0
 40
3.0
 40
3.0
 10
9271.891106080464
 20
2461.020082935092
 30
0.0
 10
9254.17125745208
 20
2507.3104529322
 30
0.0
 10
9245.324458951689
 20
2562.473873057297
 30
0.0
 10
9245.324458951689
 20
2626.510343310387
 30
0.0
  0
SPLINE
  5
138
330
75
100
AcDbEntity
  8
0
 62
    19
370
    15
100
AcDbSpline
210
0.0
220
0.0
230
1.0
 70
     8
 71
     3
 72
     8
 73
     4
 74
     0
 42
0.000000001
 43
0.00000001
 40
14.0
 40
14.0
 40
14.0
 40
14.0
 40
15.0
 40
15.0
 40
15.0
 40
15.0
 10
9525.21931239734
 20
2651.029363486549
 30
0.0
 10
9525.21931239734
 20
2610.164329859612
 30
0.0
 10
9534.066110897733
 20
2581.200034076922
 30
0.0
 10
9551.777208983582
 20
2564.188979393674
 30
0.0
  0
SPLINE
  5
139
330
75
100
AcDbEntity
  8
0
 62
    19
370
    15
100
AcDbSpline
210
0.0
220
0.0
230
1.0
 70
     8
 71
     3
 72
     8
 73
     4
 74
     0
 42
0.000000001
 43
0.00000001
 40
15.0
 40
15.0
 40
15.0
 40
15.0
 40
16.0
 40
16.0
 40
16.0
 40
16.0
 10
9551.777208983582
 20
2564.188979393674
 30
0.0
 10
9569.462055441834
 20
2547.142922540299
 30
0.0
 10
9596.01995202808
 20
2538.654896283739
 30
0.0
 10
9631.459649284845
 20
2538.654896283739
 30
0.0
  0
SPLINE
  5
13A
330
75
100
AcDbEntity
  8
0
 62
    19
370
    15
100
AcDbSpline
210
0.0
220
0.0
230
1.0
 70
     8
 71
     3
 72
     8
 73
     4
 74
     0
 42
0.000000001
 43
0.00000001
 40
16.0
 40
16.0
 40
16.0
 40
16.0
 40
17.0
 40
17.0
 40
17.0
 40
17.0
 10
9631.459649284845
 20
2538.654896283739
 30
0.0
 10
9646.431827558012
 20
2538.654896283739
 30
0.0
 10
9661.080235757472
 20
2539.319937516212
 30
0.0
 10
9675.378622255632
 20
2540.702523236353
 30
0.0
  0
SPLINE
  5
13B
330
75
100
AcDbEntity
  8
0
 62
    19
370
    15
100
AcDbSpline
210
0.0
220
0.0
230
1.0
 70
     8
 71
     3
 72
     8
 73
     4
 74
     0
 42
0.000000001
 43
0.00000001
 40
17.0
 40
17.0
 40
17.0
 40
17.0
 40
18.0
 40
18.0
 40
18.0
 40
18.0
 10
9675.378622255632
 20
2540.702523236353
 30
0.0
 10
9689.68575929633
 20
2542.032605701298
 30
0.0
 10
9703.634124093189
 20
2543.415191421437
 30
0.0
 10
9717.258718816345
 20
2544.780276056513
 30
0.0
  0
SPLINE
  5
13C
330
75
100
AcDbEntity
  8
0
 62
    19
370
    15
100
AcDbSpline
210
0.0
220
0.0
230
1.0
 70
     8
 71
     3
 72
     8
 73
     4
 74
     0
 42
0.000000001
 43
0.00000001
 40
19.0
 40
19.0
 40
19.0
 40
19.0
 40
20.0
 40
20.0
 40
20.0
 40
20.0
 10
9717.258718816345
 20
2332.317103366573
 30
0.0
 10
9694.08728219019
 20
2329.604435181488
 30
0.0
 10
9667.205615530249
 20
2326.541745295101
 30
0.0
 10
9636.56121558131
 20
2323.111532622347
 30
0.0
  0
SPLINE
  5
13D
330
75
100
AcDbEntity
  8
0
 62
    19
370
    15
100
AcDbSpline
210
0.0
220
0.0
230
1.0
 70
     8
 71
     3
 72
     8
 73
     4
 74
     0
 42
0.000000001
 43
0.00000001
 40
20.0
 40
20.0
 40
20.0
 40
20.0
 40
21.0
 40
21.0
 40
21.0
 40
21.0
 10
9636.56121558131
 20
2323.111532622347
 30
0.0
 10
9605.916815632374
 20
2319.733823204789
 30
0.0
 10
9573.548558804529
 20
2318.018716868412
 30
0.0
 10
9539.5176988955
 20
2318.018716868412
 30
0.0
  0
SPLINE
  5
13E
330
75
100
AcDbEntity
  8
0
 62
    19
370
    15
100
AcDbSpline
210
0.0
220
0.0
230
1.0
 70
     8
 71
     3
 72
     8
 73
     4
 74
     0
 42
0.000000001
 43
0.00000001
 40
0.0
 40
0.0
 40
0.0
 40
0.0
 40
1.0
 40
1.0
 40
1.0
 40
1.0
 10
10234.11826404303
 20
2313.923462963186
 30
0.0
 10
10145.57152415632
 20
2313.923462963186
 30
0.0
 10
10073.38829880544
 20
2330.619498115262
 30
0.0
 10
10017.55983744787
 20
2363.976566249284
 30
0.0
  0
SPLINE
  5
13F
330
75
100
AcDbEntity
  8
0
 62
    19
370
    15
100
AcDbSpline
210
0.0
220
0.0
230
1.0
 70
     8
 71
     3
 72
     8
 73
     4
 74
     0
 42
0.000000001
 43
0.00000001
 40
1.0
 40
1.0
 40
1.0
 40
1.0
 40
2.0
 40
2.0
 40
2.0
 40
2.0
 10
10017.55983744787
 20
2363.976566249284
 30
0.0
 10
9961.696373920166
 20
2397.333634383306
 30
0.0
 10
9920.516320762055
 20
2446.37167473563
 30
0.0
 10
9893.958424175817
 20
2511.07318622119
 30
0.0
  0
SPLINE
  5
140
330
75
100
AcDbEntity
  8
0
 62
    19
370
    15
100
AcDbSpline
210
0.0
220
0.0
230
1.0
 70
     8
 71
     3
 72
     8
 73
     4
 74
     0
 42
0.000000001
 43
0.00000001
 40
2.0
 40
2.0
 40
2.0
 40
2.0
 40
3.0
 40
3.0
 40
3.0
 40
3.0
 10
9893.958424175817
 20
2511.07318622119
 30
0.0
 10
9867.400527589574
 20
2575.757196621686
 30
0.0
 10
9854.117204025184
 20
2653.742031671633
 30
0.0
 10
9854.117204025184
 20
2744.992689200906
 30
0.0
  0
SPLINE
  5
141
330
75
100
AcDbEntity
  8
0
 62
    19
370
    15
100
AcDbSpline
210
0.0
220
0.0
230
1.0
 70
     8
 71
     3
 72
     8
 73
     4
 74
     0
 42
0.000000001
 43
0.00000001
 40
4.0
 40
4.0
 40
4.0
 40
4.0
 40
5.0
 40
5.0
 40
5.0
 40
5.0
 10
9854.117204025184
 20
3100.479104313855
 30
0.0
 10
9854.117204025184
 20
3194.459931113278
 30
0.0
 10
9867.400527589574
 20
3273.433577469404
 30
0.0
 10
9893.958424175817
 20
3337.470047722491
 30
0.0
  0
SPLINE
  5
142
330
75
100
AcDbEntity
  8
0
 62
    19
370
    15
100
AcDbSpline
210
0.0
220
0.0
230
1.0
 70
     8
 71
     3
 72
     8
 73
     4
 74
     0
 42
0.000000001
 43
0.00000001
 40
5.0
 40
5.0
 40
5.0
 40
5.0
 40
6.0
 40
6.0
 40
6.0
 40
6.0
 10
9893.958424175817
 20
3337.470047722491
 30
0.0
 10
9920.516320762055
 20
3401.471515805448
 30
0.0
 10
9962.046395621466
 20
3449.835764382767
 30
0.0
 10
10018.58365092417
 20
3482.527791284315
 30
0.0
  0
SPLINE
  5
143
330
75
100
AcDbEntity
  8
0
 62
    19
370
    15
100
AcDbSpline
210
0.0
220
0.0
230
1.0
 70
     8
 71
     3
 72
     8
 73
     4
 74
     0
 42
0.000000001
 43
0.00000001
 40
6.0
 40
6.0
 40
6.0
 40
6.0
 40
7.0
 40
7.0
 40
7.0
 40
7.0
 10
10018.58365092417
 20
3482.527791284315
 30
0.0
 10
10075.08590405675
 20
3515.211067643334
 30
0.0
 10
10146.93660879139
 20
3531.557081094106
 30
0.0
 10
10234.11826404303
 20
3531.557081094106
 30
0.0
  0
SPLINE
  5
144
330
75
100
AcDbEntity
  8
0
 62
    19
370
    15
100
AcDbSpline
210
0.0
220
0.0
230
1.0
 70
     8
 71
     3
 72
     8
 73
     4
 74
     0
 42
0.000000001
 43
0.00000001
 40
7.0
 40
7.0
 40
7.0
 40
7.0
 40
8.0
 40
8.0
 40
8.0
 40
8.0
 10
10234.11826404303
 20
3531.557081094106
 30
0.0
 10
10328.09909084245
 20
3531.557081094106
 30
0.0
 10
10401.29737912711
 20
3513.837232465724
 30
0.0
 10
10453.73938052458
 20
3478.441287921623
 30
0.0
  0
SPLINE
  5
145
330
75
100
AcDbEntity
  8
0
 62
    19
370
    15
100
AcDbSpline
210
0.0
220
0.0
230
1.0
 70
     8
 71
     3
 72
     8
 73
     4
 74
     0
 42
0.000000001
 43
0.00000001
 40
8.0
 40
8.0
 40
8.0
 40
8.0
 40
9.0
 40
9.0
 40
9.0
 40
9.0
 10
10453.73938052458
 20
3478.441287921623
 30
0.0
 10
10506.15513029447
 20
3443.01034120739
 30
0.0
 10
10543.63370396131
 20
3391.609654371282
 30
0.0
 10
10566.10509718486
 20
3324.195474700636
 30
0.0
  0
SPLINE
  5
146
330
75
100
AcDbEntity
  8
0
 62
    19
370
    15
100
AcDbSpline
210
0.0
220
0.0
230
1.0
 70
     8
 71
     3
 72
     8
 73
     4
 74
     0
 42
0.000000001
 43
0.00000001
 40
9.0
 40
9.0
 40
9.0
 40
9.0
 40
10.0
 40
10.0
 40
10.0
 40
10.0
 10
10566.10509718486
 20
3324.195474700636
 30
0.0
 10
10588.58524095094
 20
3256.772544487456
 30
0.0
 10
10599.82093756272
 20
3174.701206074815
 30
0.0
 10
10599.82093756272
 20
3078.007711090308
 30
0.0
  0
SPLINE
  5
147
330
75
100
AcDbEntity
  8
0
 62
    19
370
    15
100
AcDbSpline
210
0.0
220
0.0
230
1.0
 70
     8
 71
     3
 72
     8
 73
     4
 74
     0
 42
0.000000001
 43
0.00000001
 40
13.0
 40
13.0
 40
13.0
 40
13.0
 40
14.0
 40
14.0
 40
14.0
 40
14.0
 10
10129.92555410814
 20
2677.578509530259
 30
0.0
 10
10129.92555410814
 20
2639.426144088407
 30
0.0
 10
10133.66203576954
 20
2608.116702906997
 30
0.0
 10
10141.16125071992
 20
2583.597682730838
 30
0.0
  0
SPLINE
  5
148
330
75
100
AcDbEntity
  8
0
 62
    19
370
    15
100
AcDbSpline
210
0.0
220
0.0
230
1.0
 70
     8
 71
     3
 72
     8
 73
     4
 74
     0
 42
0.000000001
 43
0.00000001
 40
14.0
 40
14.0
 40
14.0
 40
14.0
 40
15.0
 40
15.0
 40
15.0
 40
15.0
 10
10141.16125071992
 20
2583.597682730838
 30
0.0
 10
10148.6342140427
 20
2559.078662554674
 30
0.0
 10
10160.56995405708
 20
2541.367564468825
 30
0.0
 10
10176.91596750785
 20
2530.481889558352
 30
0.0
  0
SPLINE
  5
149
330
75
100
AcDbEntity
  8
0
 62
    19
370
    15
100
AcDbSpline
210
0.0
220
0.0
230
1.0
 70
     8
 71
     3
 72
     8
 73
     4
 74
     0
 42
0.000000001
 43
0.00000001
 40
15.0
 40
15.0
 40
15.0
 40
15.0
 40
16.0
 40
16.0
 40
16.0
 40
16.0
 10
10176.91596750785
 20
2530.481889558352
 30
0.0
 10
10193.26198095863
 20
2519.561212477749
 30
0.0
 10
10212.98570382696
 20
2514.135876107577
 30
0.0
 10
10236.16589099565
 20
2514.135876107577
 30
0.0
  0
SPLINE
  5
14A
330
75
100
AcDbEntity
  8
0
 62
    19
370
    15
100
AcDbSpline
210
0.0
220
0.0
230
1.0
 70
     8
 71
     3
 72
     8
 73
     4
 74
     0
 42
0.000000001
 43
0.00000001
 40
16.0
 40
16.0
 40
16.0
 40
16.0
 40
17.0
 40
17.0
 40
17.0
 40
17.0
 10
10236.16589099565
 20
2514.135876107577
 30
0.0
 10
10260.67616062927
 20
2514.135876107577
 30
0.0
 10
10280.40863404014
 20
2519.91123417905
 30
0.0
 10
10295.40706394091
 20
2531.514453577191
 30
0.0
  0
SPLINE
  5
14B
330
75
100
AcDbEntity
  8
0
 62
    19
370
    15
100
AcDbSpline
210
0.0
220
0.0
230
1.0
 70
     8
 71
     3
 72
     8
 73
     4
 74
     0
 42
0.000000001
 43
0.00000001
 40
17.0
 40
17.0
 40
17.0
 40
17.0
 40
18.0
 40
18.0
 40
18.0
 40
18.0
 10
10295.40706394091
 20
2531.514453577191
 30
0.0
 10
10310.37924221407
 20
2543.065169720136
 30
0.0
 10
10321.26491712454
 20
2560.111226573514
 30
0.0
 10
10328.09909084245
 20
2582.582619797061
 30
0.0
  0
SPLINE
  5
14C
330
75
100
AcDbEntity
  8
0
 62
    19
370
    15
100
AcDbSpline
210
0.0
220
0.0
230
1.0
 70
     8
 71
     3
 72
     8
 73
     4
 74
     0
 42
0.000000001
 43
0.00000001
 40
18.0
 40
18.0
 40
18.0
 40
18.0
 40
19.0
 40
19.0
 40
19.0
 40
19.0
 10
10328.09909084245
 20
2582.582619797061
 30
0.0
 10
10334.89826239024
 20
2605.054013020611
 30
0.0
 10
10338.31097397792
 20
2633.300764315635
 30
0.0
 10
10338.31097397792
 20
2667.357875852258
 30
0.0
  0
SPLINE
  5
14D
330
75
100
AcDbEntity
  8
0
 62
    19
370
    15
100
AcDbSpline
210
0.0
220
0.0
230
1.0
 70
     8
 71
     3
 72
     8
 73
     4
 74
     0
 42
0.000000001
 43
0.00000001
 40
22.0
 40
22.0
 40
22.0
 40
22.0
 40
23.0
 40
23.0
 40
23.0
 40
23.0
 10
10597.7733106101
 20
2685.751516255645
 30
0.0
 10
10597.7733106101
 20
2565.886584644988
 30
0.0
 10
10567.80270243617
 20
2473.953384798178
 30
0.0
 10
10507.87898717338
 20
2409.951916715221
 30
0.0
  0
SPLINE
  5
14E
330
75
100
AcDbEntity
  8
0
 62
    19
370
    15
100
AcDbSpline
210
0.0
220
0.0
230
1.0
 70
     8
 71
     3
 72
     8
 73
     4
 74
     0
 42
0.000000001
 43
0.00000001
 40
23.0
 40
23.0
 40
23.0
 40
23.0
 40
24.0
 40
24.0
 40
24.0
 40
24.0
 10
10507.87898717338
 20
2409.951916715221
 30
0.0
 10
10447.92902028299
 20
2345.915446462132
 30
0.0
 10
10356.69586383878
 20
2313.923462963186
 30
0.0
 10
10234.11826404303
 20
2313.923462963186
 30
0.0
  0
SPLINE
  5
14F
330
75
100
AcDbEntity
  8
0
 62
    19
370
    15
100
AcDbSpline
210
0.0
220
0.0
230
1.0
 70
     8
 71
     3
 72
     8
 73
     4
 74
     0
 42
0.000000001
 43
0.00000001
 40
2.0
 40
2.0
 40
2.0
 40
2.0
 40
3.0
 40
3.0
 40
3.0
 40
3.0
 10
10338.31097397792
 20
3159.729027801647
 30
0.0
 10
10338.31097397792
 20
3200.594061428585
 30
0.0
 10
10334.89826239024
 20
3233.601107861304
 30
0.0
 10
10328.09909084245
 20
3258.820171440068
 30
0.0
  0
SPLINE
  5
150
330
75
100
AcDbEntity
  8
0
 62
    19
370
    15
100
AcDbSpline
210
0.0
220
0.0
230
1.0
 70
     8
 71
     3
 72
     8
 73
     4
 74
     0
 42
0.000000001
 43
0.00000001
 40
3.0
 40
3.0
 40
3.0
 40
3.0
 40
4.0
 40
4.0
 40
4.0
 40
4.0
 10
10328.09909084245
 20
3258.820171440068
 30
0.0
 10
10321.26491712454
 20
3284.004232848703
 30
0.0
 10
10310.37924221407
 20
3302.389122709558
 30
0.0
 10
10295.40706394091
 20
3313.974841022635
 30
0.0
  0
SPLINE
  5
151
330
75
100
AcDbEntity
  8
0
 62
    19
370
    15
100
AcDbSpline
210
0.0
220
0.0
230
1.0
 70
     8
 71
     3
 72
     8
 73
     4
 74
     0
 42
0.000000001
 43
0.00000001
 40
4.0
 40
4.0
 40
4.0
 40
4.0
 40
5.0
 40
5.0
 40
5.0
 40
5.0
 10
10295.40706394091
 20
3313.974841022635
 30
0.0
 10
10280.40863404014
 20
3325.534307708113
 30
0.0
 10
10259.30232545167
 20
3331.344667949716
 30
0.0
 10
10232.07938763295
 20
3331.344667949716
 30
0.0
  0
SPLINE
  5
152
330
75
100
AcDbEntity
  8
0
 62
    19
370
    15
100
AcDbSpline
210
0.0
220
0.0
230
1.0
 70
     8
 71
     3
 72
     8
 73
     4
 74
     0
 42
0.000000001
 43
0.00000001
 40
5.0
 40
5.0
 40
5.0
 40
5.0
 40
6.0
 40
6.0
 40
6.0
 40
6.0
 10
10232.07938763295
 20
3331.344667949716
 30
0.0
 10
10207.56036745679
 20
3331.344667949716
 30
0.0
 10
10187.80164241833
 20
3325.21053763441
 30
0.0
 10
10172.82946414516
 20
3312.959778088861
 30
0.0
  0
SPLINE
  5
153
330
75
100
AcDbEntity
  8
0
 62
    19
370
    15
100
AcDbSpline
210
0.0
220
0.0
230
1.0
 70
     8
 71
     3
 72
     8
 73
     4
 74
     0
 42
0.000000001
 43
0.00000001
 40
6.0
 40
6.0
 40
6.0
 40
6.0
 40
7.0
 40
7.0
 40
7.0
 40
7.0
 10
10172.82946414516
 20
3312.959778088861
 30
0.0
 10
10157.82228370187
 20
3300.70026800078
 30
0.0
 10
10146.93660879139
 20
3280.267751187312
 30
0.0
 10
10140.13743724361
 20
3251.662227648456
 30
0.0
  0
SPLINE
  5
154
330
75
100
AcDbEntity
  8
0
 62
    19
370
    15
100
AcDbSpline
210
0.0
220
0.0
230
1.0
 70
     8
 71
     3
 72
     8
 73
     4
 74
     0
 42
0.000000001
 43
0.00000001
 40
7.0
 40
7.0
 40
7.0
 40
7.0
 40
8.0
 40
8.0
 40
8.0
 40
8.0
 10
10140.13743724361
 20
3251.662227648456
 30
0.0
 10
10133.31201406823
 20
3223.065454652132
 30
0.0
 10
10129.92555410814
 20
3182.200421025197
 30
0.0
 10
10129.92555410814
 20
3129.084627852711
 30
0.0
  0
SPLINE
  5
155
330
75
100
AcDbEntity
  8
0
 62
    19
370
    15
100
AcDbSpline
210
0.0
220
0.0
230
1.0
 70
     8
 71
     3
 72
     8
 73
     4
 74
     0
 42
0.000000001
 43
0.00000001
 40
3.0
 40
3.0
 40
3.0
 40
3.0
 40
4.0
 40
4.0
 40
4.0
 40
4.0
 10
11055.40043343407
 20
3411.018357708444
 30
0.0
 10
11096.265467061
 20
3454.596059520466
 30
0.0
 10
11140.5082101055
 20
3486.264272945708
 30
0.0
 10
11188.19866690781
 20
3506.022997984171
 30
0.0
  0
SPLINE
  5
156
330
75
100
AcDbEntity
  8
0
 62
    19
370
    15
100
AcDbSpline
210
0.0
220
0.0
230
1.0
 70
     8
 71
     3
 72
     8
 73
     4
 74
     0
 42
0.000000001
 43
0.00000001
 40
4.0
 40
4.0
 40
4.0
 40
4.0
 40
5.0
 40
5.0
 40
5.0
 40
5.0
 10
11188.19866690781
 20
3506.022997984171
 30
0.0
 10
11235.86287208253
 20
3525.746720852504
 30
0.0
 10
11284.21837011732
 20
3535.643584456801
 30
0.0
 10
11333.25641046964
 20
3535.643584456801
 30
0.0
  0
SPLINE
  5
157
330
75
100
AcDbEntity
  8
0
 62
    19
370
    15
100
AcDbSpline
210
0.0
220
0.0
230
1.0
 70
     8
 71
     3
 72
     8
 73
     4
 74
     0
 42
0.000000001
 43
0.00000001
 40
5.0
 40
5.0
 40
5.0
 40
5.0
 40
6.0
 40
6.0
 40
6.0
 40
6.0
 10
11333.25641046964
 20
3535.643584456801
 30
0.0
 10
11379.53802992421
 20
3535.643584456801
 30
0.0
 10
11420.07929347745
 20
3524.057866143725
 30
0.0
 10
11454.81019678908
 20
3500.91268114517
 30
0.0
  0
SPLINE
  5
158
330
75
100
AcDbEntity
  8
0
 62
    19
370
    15
100
AcDbSpline
210
0.0
220
0.0
230
1.0
 70
     8
 71
     3
 72
     8
 73
     4
 74
     0
 42
0.000000001
 43
0.00000001
 40
6.0
 40
6.0
 40
6.0
 40
6.0
 40
7.0
 40
7.0
 40
7.0
 40
7.0
 10
11454.81019678908
 20
3500.91268114517
 30
0.0
 10
11489.54110010071
 20
3477.74124451902
 30
0.0
 10
11515.08393375317
 20
3440.962714254777
 30
0.0
 10
11531.42119666142
 20
3390.585840894974
 30
0.0
  0
SPLINE
  5
159
330
75
100
AcDbEntity
  8
0
 62
    19
370
    15
100
AcDbSpline
210
0.0
220
0.0
230
1.0
 70
     8
 71
     3
 72
     8
 73
     4
 74
     0
 42
0.000000001
 43
0.00000001
 40
7.0
 40
7.0
 40
7.0
 40
7.0
 40
8.0
 40
8.0
 40
8.0
 40
8.0
 10
11531.42119666142
 20
3390.585840894974
 30
0.0
 10
11576.37273365105
 20
3442.336549432384
 30
0.0
 10
11624.02818828323
 20
3479.465101397929
 30
0.0
 10
11674.43131327063
 20
3501.936494621479
 30
0.0
  0
SPLINE
  5
15A
330
75
100
AcDbEntity
  8
0
 62
    19
370
    15
100
AcDbSpline
210
0.0
220
0.0
230
1.0
 70
     8
 71
     3
 72
     8
 73
     4
 74
     0
 42
0.000000001
 43
0.00000001
 40
8.0
 40
8.0
 40
8.0
 40
8.0
 40
9.0
 40
9.0
 40
9.0
 40
9.0
 10
11674.43131327063
 20
3501.936494621479
 30
0.0
 10
11724.80818663043
 20
3524.407887845026
 30
0.0
 10
11776.58514679544
 20
3535.643584456801
 30
0.0
 10
11829.70093996792
 20
3535.643584456801
 30
0.0
  0
SPLINE
  5
15B
330
75
100
AcDbEntity
  8
0
 62
    19
370
    15
100
AcDbSpline
210
0.0
220
0.0
230
1.0
 70
     8
 71
     3
 72
     8
 73
     4
 74
     0
 42
0.000000001
 43
0.00000001
 40
9.0
 40
9.0
 40
9.0
 40
9.0
 40
10.0
 40
10.0
 40
10.0
 40
10.0
 10
11829.70093996792
 20
3535.643584456801
 30
0.0
 10
11871.90480660234
 20
3535.643584456801
 30
0.0
 10
11909.38338026918
 20
3525.081679620031
 30
0.0
 10
11942.0666566282
 20
3503.975371031559
 30
0.0
  0
SPLINE
  5
15C
330
75
100
AcDbEntity
  8
0
 62
    19
370
    15
100
AcDbSpline
210
0.0
220
0.0
230
1.0
 70
     8
 71
     3
 72
     8
 73
     4
 74
     0
 42
0.000000001
 43
0.00000001
 40
10.0
 40
10.0
 40
10.0
 40
10.0
 40
11.0
 40
11.0
 40
11.0
 40
11.0
 10
11942.0666566282
 20
3503.975371031559
 30
0.0
 10
11974.75868352975
 20
3482.842810815489
 30
0.0
 10
12000.61653671339
 20
3451.53336963408
 30
0.0
 10
12019.70146997684
 20
3409.994544232135
 30
0.0
  0
SPLINE
  5
15D
330
75
100
AcDbEntity
  8
0
 62
    19
370
    15
100
AcDbSpline
210
0.0
220
0.0
230
1.0
 70
     8
 71
     3
 72
     8
 73
     4
 74
     0
 42
0.000000001
 43
0.00000001
 40
11.0
 40
11.0
 40
11.0
 40
11.0
 40
12.0
 40
12.0
 40
12.0
 40
12.0
 10
12019.70146997684
 20
3409.994544232135
 30
0.0
 10
12038.76015161271
 20
3368.43821774513
 30
0.0
 10
12048.3069935157
 20
3316.337487506418
 30
0.0
 10
12048.3069935157
 20
3253.709854601068
 30
0.0
  0
SPLINE
  5
15E
330
75
100
AcDbEntity
  8
0
 62
    19
370
    15
100
AcDbSpline
210
0.0
220
0.0
230
1.0
 70
     8
 71
     3
 72
     8
 73
     4
 74
     0
 42
0.000000001
 43
0.00000001
 40
15.0
 40
15.0
 40
15.0
 40
15.0
 40
16.0
 40
16.0
 40
16.0
 40
16.0
 10
11782.71052656821
 20
3229.190834424906
 30
0.0
 10
11782.71052656821
 20
3274.142371414538
 30
0.0
 10
11775.21131161783
 20
3305.101790894646
 30
0.0
 10
11760.23913334466
 20
3322.147847748021
 30
0.0
  0
SPLINE
  5
15F
330
75
100
AcDbEntity
  8
0
 62
    19
370
    15
100
AcDbSpline
210
0.0
220
0.0
230
1.0
 70
     8
 71
     3
 72
     8
 73
     4
 74
     0
 42
0.000000001
 43
0.00000001
 40
16.0
 40
16.0
 40
16.0
 40
16.0
 40
17.0
 40
17.0
 40
17.0
 40
17.0
 10
11760.23913334466
 20
3322.147847748021
 30
0.0
 10
11745.2407034439
 20
3339.167652973802
 30
0.0
 10
11724.13439485543
 20
3347.690681400491
 30
0.0
 10
11696.91145703671
 20
3347.690681400491
 30
0.0
  0
SPLINE
  5
160
330
75
100
AcDbEntity
  8
0
 62
    19
370
    15
100
AcDbSpline
210
0.0
220
0.0
230
1.0
 70
     8
 71
     3
 72
     8
 73
     4
 74
     0
 42
0.000000001
 43
0.00000001
 40
17.0
 40
17.0
 40
17.0
 40
17.0
 40
18.0
 40
18.0
 40
18.0
 40
18.0
 10
11696.91145703671
 20
3347.690681400491
 30
0.0
 10
11675.10510504564
 20
3347.690681400491
 30
0.0
 10
11650.93610657077
 20
3341.556551085185
 30
0.0
 10
11624.37820998453
 20
3329.297040997102
 30
0.0
  0
SPLINE
  5
161
330
75
100
AcDbEntity
  8
0
 62
    19
370
    15
100
AcDbSpline
210
0.0
220
0.0
230
1.0
 70
     8
 71
     3
 72
     8
 73
     4
 74
     0
 42
0.000000001
 43
0.00000001
 40
18.0
 40
18.0
 40
18.0
 40
18.0
 40
19.0
 40
19.0
 40
19.0
 40
19.0
 10
11624.37820998453
 20
3329.297040997102
 30
0.0
 10
11597.82031339829
 20
3317.046281451555
 30
0.0
 10
11573.62506329583
 20
3299.991474055645
 30
0.0
 10
11551.85371347488
 20
3278.22887477723
 30
0.0
  0
SPLINE
  5
162
330
75
100
AcDbEntity
  8
0
 62
    19
370
    15
100
AcDbSpline
210
0.0
220
0.0
230
1.0
 70
    24
 71
     3
 72
     8
 73
     4
 74
     0
 42
0.000000001
 43
0.00000001
 40
19.0
 40
19.0
 40
19.0
 40
19.0
 40
20.0
 40
20.0
 40
20.0
 40
20.0
 10
11551.85371347488
 20
3278.22887477723
 30
0.0
 10
11551.85371347488
 20
3274.142371414538
 30
0.0
 10
11551.85371347488
 20
3270.370887583014
 30
0.0
 10
11551.85371347488
 20
3266.984427622923
 30
0.0
  0
SPLINE
  5
163
330
75
100
AcDbEntity
  8
0
 62
    19
370
    15
100
AcDbSpline
210
0.0
220
0.0
230
1.0
 70
    24
 71
     3
 72
     8
 73
     4
 74
     0
 42
0.000000001
 43
0.00000001
 40
20.0
 40
20.0
 40
20.0
 40
20.0
 40
21.0
 40
21.0
 40
21.0
 40
21.0
 10
11551.85371347488
 20
3266.984427622923
 30
0.0
 10
11551.85371347488
 20
3263.571716035235
 30
0.0
 10
11551.85371347488
 20
3259.13519097124
 30
0.0
 10
11551.85371347488
 20
3253.709854601068
 30
0.0
  0
SPLINE
  5
164
330
75
100
AcDbEntity
  8
0
 62
    19
370
    15
100
AcDbSpline
210
0.0
220
0.0
230
1.0
 70
     8
 71
     3
 72
     8
 73
     4
 74
     0
 42
0.000000001
 43
0.00000001
 40
24.0
 40
24.0
 40
24.0
 40
24.0
 40
25.0
 40
25.0
 40
25.0
 40
25.0
 10
11288.30487348001
 20
3229.190834424906
 30
0.0
 10
11288.30487348001
 20
3274.142371414538
 30
0.0
 10
11280.45563682832
 20
3305.101790894646
 30
0.0
 10
11264.80966678015
 20
3322.147847748021
 30
0.0
  0
SPLINE
  5
165
330
75
100
AcDbEntity
  8
0
 62
    19
370
    15
100
AcDbSpline
210
0.0
220
0.0
230
1.0
 70
     8
 71
     3
 72
     8
 73
     4
 74
     0
 42
0.000000001
 43
0.00000001
 40
25.0
 40
25.0
 40
25.0
 40
25.0
 40
26.0
 40
26.0
 40
26.0
 40
26.0
 10
11264.80966678015
 20
3322.147847748021
 30
0.0
 10
11249.13744510438
 20
3339.167652973802
 30
0.0
 10
11227.68986535714
 20
3347.690681400491
 30
0.0
 10
11200.45817699589
 20
3347.690681400491
 30
0.0
  0
SPLINE
  5
166
330
75
100
AcDbEntity
  8
0
 62
    19
370
    15
100
AcDbSpline
210
0.0
220
0.0
230
1.0
 70
     8
 71
     3
 72
     8
 73
     4
 74
     0
 42
0.000000001
 43
0.00000001
 40
26.0
 40
26.0
 40
26.0
 40
26.0
 40
27.0
 40
27.0
 40
27.0
 40
27.0
 10
11200.45817699589
 20
3347.690681400491
 30
0.0
 10
11178.65182500482
 20
3347.690681400491
 30
0.0
 10
11154.80659660366
 20
3341.556551085185
 30
0.0
 10
11128.94874342002
 20
3329.297040997102
 30
0.0
  0
SPLINE
  5
167
330
75
100
AcDbEntity
  8
0
 62
    19
370
    15
100
AcDbSpline
210
0.0
220
0.0
230
1.0
 70
     8
 71
     3
 72
     8
 73
     4
 74
     0
 42
0.000000001
 43
0.00000001
 40
27.0
 40
27.0
 40
27.0
 40
27.0
 40
28.0
 40
28.0
 40
28.0
 40
28.0
 10
11128.94874342002
 20
3329.297040997102
 30
0.0
 10
11103.06463860878
 20
3317.046281451555
 30
0.0
 10
11078.54561843262
 20
3299.991474055645
 30
0.0
 10
11055.40043343407
 20
3278.22887477723
 30
0.0
  0
ENDBLK
  5
77
330
75
100
AcDbEntity
  8
0
100
AcDbBlockEnd
  0
BLOCK
  5
169
330
168
100
AcDbEntity
  8
0
100
AcDbBlockBegin
  2
Block3
 70
     0
 10
0.0
 20
0.0
 30
0.0
  3
Block3
  1

  0
LINE
  5
16B
330
168
100
AcDbEntity
  8
VRSTVA_1
 62
   179
370
    15
100
AcDbLine
 10
22.5974839474
 20
13.7121970607
 30
0.0
 11
26.15763452
 21
13.7121970607
 31
0.0
  0
LINE
  5
16C
330
168
100
AcDbEntity
  8
VRSTVA_1
 62
   179
370
    15
100
AcDbLine
 10
27.364329085
 20
13.7121970607
 30
0.0
 11
31.443709506
 21
13.6550927703
 31
0.0
  0
LINE
  5
16D
330
168
100
AcDbEntity
  8
VRSTVA_1
 62
   179
370
    15
100
AcDbLine
 10
30.6722739271
 20
14.9158429366
 30
0.0
 11
29.0603382373
 21
14.3845355894
 31
0.0
  0
LINE
  5
16E
330
168
100
AcDbEntity
  8
VRSTVA_1
 62
   179
370
    15
100
AcDbLine
 10
29.0603382373
 20
14.3845355894
 30
0.0
 11
28.7511308165
 21
14.6787340797
 31
0.0
  0
LINE
  5
16F
330
168
100
AcDbEntity
  8
VRSTVA_1
 62
   179
370
    15
100
AcDbLine
 10
27.6735365058
 20
15.5071713489
 30
0.0
 11
27.2652466919
 21
15.7593770794
 31
0.0
  0
LINE
  5
170
330
168
100
AcDbEntity
  8
VRSTVA_1
 62
   179
370
    15
100
AcDbLine
 10
27.2652466919
 20
15.7593770794
 30
0.0
 11
27.5173498222
 21
17.3982965984
 31
0.0
  0
LINE
  5
171
330
168
100
AcDbEntity
  8
VRSTVA_1
 62
   179
370
    15
100
AcDbLine
 10
26.3256641879
 20
17.8035377233
 30
0.0
 11
25.4431859743
 21
16.3597343015
 31
0.0
  0
LINE
  5
172
330
168
100
AcDbEntity
  8
VRSTVA_1
 62
   179
370
    15
100
AcDbLine
 10
25.4431859743
 20
16.3597343015
 30
0.0
 11
24.9958494895
 21
16.4017270613
 31
0.0
  0
LINE
  5
173
330
168
100
AcDbEntity
  8
VRSTVA_1
 62
   179
370
    15
100
AcDbLine
 10
23.7471621648
 20
16.4017270613
 30
0.0
 11
23.2998403372
 21
16.3597343015
 31
0.0
  0
LINE
  5
174
330
168
100
AcDbEntity
  8
VRSTVA_1
 62
   179
370
    15
100
AcDbLine
 10
23.2998403372
 20
16.3597343015
 30
0.0
 11
22.4143134346
 21
17.8035377233
 31
0.0
  0
LINE
  5
175
330
168
100
AcDbEntity
  8
VRSTVA_1
 62
   179
370
    15
100
AcDbLine
 10
21.2376367308
 20
17.3982965984
 30
0.0
 11
21.4748481879
 21
15.7593770794
 31
0.0
  0
LINE
  5
176
330
168
100
AcDbEntity
  8
VRSTVA_1
 62
   179
370
    15
100
AcDbLine
 10
21.4748481879
 20
15.7593770794
 30
0.0
 11
21.069607063
 21
15.5071713489
 31
0.0
  0
LINE
  5
177
330
168
100
AcDbEntity
  8
VRSTVA_1
 62
   179
370
    15
100
AcDbLine
 10
20.0039729938
 20
14.6787340797
 30
0.0
 11
19.6826880742
 21
14.3845355894
 31
0.0
  0
LINE
  5
178
330
168
100
AcDbEntity
  8
VRSTVA_1
 62
   179
370
    15
100
AcDbLine
 10
19.6826880742
 20
14.3845355894
 30
0.0
 11
18.0828298832
 21
14.9158429366
 31
0.0
  0
LINE
  5
179
330
168
100
AcDbEntity
  8
VRSTVA_1
 62
   179
370
    15
100
AcDbLine
 10
0.0
 20
13.7121970607
 30
0.0
 11
21.3907600682
 21
13.7121970607
 31
0.0
  0
LINE
  5
17A
330
168
100
AcDbEntity
  8
VRSTVA_1
 62
   179
370
    15
100
AcDbLine
 10
15.8404018529
 20
15.4771534878
 30
0.0
 11
17.8456184261
 21
15.7593770794
 31
0.0
  0
LINE
  5
17B
330
168
100
AcDbEntity
  8
VRSTVA_1
 62
   179
370
    15
100
AcDbLine
 10
17.8456184261
 20
15.7593770794
 30
0.0
 11
19.4996348187
 21
15.1980811854
 31
0.0
  0
LINE
  5
17C
330
168
100
AcDbEntity
  8
VRSTVA_1
 62
   179
370
    15
100
AcDbLine
 10
20.7063586979
 20
16.1225375015
 30
0.0
 11
20.4392319798
 21
17.8185466539
 31
0.0
  0
LINE
  5
17D
330
168
100
AcDbEntity
  8
VRSTVA_1
 62
   179
370
    15
100
AcDbLine
 10
22.7656162153
 20
18.617054005
 30
0.0
 11
23.6781269471
 21
17.119224296
 31
0.0
  0
LINE
  5
17E
330
168
100
AcDbEntity
  8
VRSTVA_1
 62
   179
370
    15
100
AcDbLine
 10
25.0649140215
 20
17.119224296
 30
0.0
 11
25.9775273534
 21
18.617054005
 31
0.0
  0
LINE
  5
17F
330
168
100
AcDbEntity
  8
VRSTVA_1
 62
   179
370
    15
100
AcDbLine
 10
28.303911589
 20
17.8185466539
 30
0.0
 11
28.0516912013
 21
16.1225375015
 31
0.0
  0
LINE
  5
180
330
168
100
AcDbEntity
  8
VRSTVA_1
 62
   179
370
    15
100
AcDbLine
 10
29.2433768357
 20
15.1980811854
 30
0.0
 11
30.9124168159
 21
15.7593770794
 31
0.0
  0
LINE
  5
181
330
168
100
AcDbEntity
  8
VRSTVA_1
 62
   179
370
    15
100
AcDbLine
 10
32.2001361544
 20
13.7541605062
 30
0.0
 11
32.2177888476
 21
13.7095184145
 31
0.0
  0
LINE
  5
182
330
168
100
AcDbEntity
  8
VRSTVA_1
 62
   179
370
    15
100
AcDbLine
 10
32.2177888476
 20
13.7095184145
 30
0.0
 11
33.742335315
 21
13.7121239684
 31
0.0
  0
LINE
  5
183
330
168
100
AcDbEntity
  8
VRSTVA_1
 62
   179
370
    15
100
AcDbLine
 10
26.1876523811
 20
6.4898381191
 30
0.0
 11
22.6244384623
 21
6.4898381191
 31
0.0
  0
LINE
  5
184
330
168
100
AcDbEntity
  8
VRSTVA_1
 62
   179
370
    15
100
AcDbLine
 10
21.4207779293
 20
6.4898381191
 30
0.0
 11
17.3262859775
 21
6.5468251523
 31
0.0
  0
LINE
  5
185
330
168
100
AcDbEntity
  8
VRSTVA_1
 62
   179
370
    15
100
AcDbLine
 10
18.1098137124
 20
5.286074986
 30
0.0
 11
19.7097598464
 21
5.8174849333
 31
0.0
  0
LINE
  5
186
330
168
100
AcDbEntity
  8
VRSTVA_1
 62
   179
370
    15
100
AcDbLine
 10
19.7097598464
 20
5.8174849333
 30
0.0
 11
20.0189819244
 21
5.5232864431
 31
0.0
  0
LINE
  5
187
330
168
100
AcDbEntity
  8
VRSTVA_1
 62
   179
370
    15
100
AcDbLine
 10
21.0965908922
 20
4.6977952627
 30
0.0
 11
21.504866049
 21
4.4426434433
 31
0.0
  0
LINE
  5
188
330
168
100
AcDbEntity
  8
VRSTVA_1
 62
   179
370
    15
100
AcDbLine
 10
21.504866049
 20
4.4426434433
 30
0.0
 11
21.2647231602
 21
2.8036506385
 31
0.0
  0
LINE
  5
189
330
168
100
AcDbEntity
  8
VRSTVA_1
 62
   179
370
    15
100
AcDbLine
 10
22.4443312957
 20
2.3984095136
 30
0.0
 11
23.3269121094
 21
3.8422862213
 31
0.0
  0
LINE
  5
18A
330
168
100
AcDbEntity
  8
VRSTVA_1
 62
   179
370
    15
100
AcDbLine
 10
23.3269121094
 20
3.8422862213
 30
0.0
 11
23.7741459941
 21
3.8001908614
 31
0.0
  0
LINE
  5
18B
330
168
100
AcDbEntity
  8
VRSTVA_1
 62
   179
370
    15
100
AcDbLine
 10
25.0229359189
 20
3.8001908614
 30
0.0
 11
25.4732038354
 21
3.8422862213
 31
0.0
  0
LINE
  5
18C
330
168
100
AcDbEntity
  8
VRSTVA_1
 62
   179
370
    15
100
AcDbLine
 10
25.4732038354
 20
3.8422862213
 30
0.0
 11
26.355682049
 21
2.3984095136
 31
0.0
  0
LINE
  5
18D
330
168
100
AcDbEntity
  8
VRSTVA_1
 62
   179
370
    15
100
AcDbLine
 10
27.5473676833
 20
2.8036506385
 30
0.0
 11
27.295264553
 21
4.4426434433
 31
0.0
  0
LINE
  5
18E
330
168
100
AcDbEntity
  8
VRSTVA_1
 62
   179
370
    15
100
AcDbLine
 10
27.295264553
 20
4.4426434433
 30
0.0
 11
27.7005056779
 21
4.6977952627
 31
0.0
  0
LINE
  5
18F
330
168
100
AcDbEntity
  8
VRSTVA_1
 62
   179
370
    15
100
AcDbLine
 10
28.7811486776
 20
5.5232864431
 30
0.0
 11
29.0903560984
 21
5.8174849333
 31
0.0
  0
LINE
  5
190
330
168
100
AcDbEntity
  8
VRSTVA_1
 62
   179
370
    15
100
AcDbLine
 10
29.0903560984
 20
5.8174849333
 30
0.0
 11
30.7022917882
 21
5.286074986
 31
0.0
  0
LINE
  5
191
330
168
100
AcDbEntity
  8
VRSTVA_1
 62
   179
370
    15
100
AcDbLine
 10
48.7880531031
 20
6.4898381191
 30
0.0
 11
27.391298257
 21
6.4898381191
 31
0.0
  0
LINE
  5
192
330
168
100
AcDbEntity
  8
VRSTVA_1
 62
   179
370
    15
100
AcDbLine
 10
32.9295936307
 20
4.7247937491
 30
0.0
 11
30.939385988
 21
4.4426434433
 31
0.0
  0
LINE
  5
193
330
168
100
AcDbEntity
  8
VRSTVA_1
 62
   179
370
    15
100
AcDbLine
 10
30.939385988
 20
4.4426434433
 30
0.0
 11
29.270463265
 21
5.0039539945
 31
0.0
  0
LINE
  5
194
330
168
100
AcDbEntity
  8
VRSTVA_1
 62
   179
370
    15
100
AcDbLine
 10
28.0787776307
 20
4.0794097354
 30
0.0
 11
28.330880761
 21
2.383400583
 31
0.0
  0
LINE
  5
195
330
168
100
AcDbEntity
  8
VRSTVA_1
 62
   179
370
    15
100
AcDbLine
 10
26.0044965255
 20
1.5849665177
 30
0.0
 11
25.0920004509
 21
3.0828108839
 31
0.0
  0
LINE
  5
196
330
168
100
AcDbEntity
  8
VRSTVA_1
 62
   179
370
    15
100
AcDbLine
 10
23.7050814621
 20
3.0828108839
 30
0.0
 11
22.7926000446
 21
1.5849665177
 31
0.0
  0
LINE
  5
197
330
168
100
AcDbEntity
  8
VRSTVA_1
 62
   179
370
    15
100
AcDbLine
 10
20.4662158091
 20
2.383400583
 30
0.0
 11
20.7333132128
 21
4.0794097354
 31
0.0
  0
LINE
  5
198
330
168
100
AcDbEntity
  8
VRSTVA_1
 62
   179
370
    15
100
AcDbLine
 10
19.5266186479
 20
5.0039539945
 30
0.0
 11
17.8727048554
 21
4.4426434433
 31
0.0
  0
LINE
  5
199
330
168
100
AcDbEntity
  8
VRSTVA_1
 62
   179
370
    15
100
AcDbLine
 10
16.581936828
 20
6.4478600165
 30
0.0
 11
16.6389385183
 21
6.4898381191
 31
0.0
  0
LINE
  5
19A
330
168
100
AcDbEntity
  8
VRSTVA_1
 62
   179
370
    15
100
AcDbLine
 10
16.6389385183
 20
6.4898381191
 30
0.0
 11
14.9848928115
 21
6.4898381191
 31
0.0
  0
LINE
  5
19B
330
168
100
AcDbEntity
  8
VRSTVA_1
 62
   179
370
    15
100
AcDbLine
 10
18.0828298832
 20
14.9158429366
 30
0.0
 11
0.0
 21
13.7121970607
 31
0.0
  0
LINE
  5
19C
330
168
100
AcDbEntity
  8
VRSTVA_1
 62
   179
370
    15
100
AcDbLine
 10
30.7022917882
 20
5.286074986
 30
0.0
 11
48.7880531031
 21
6.4898381191
 31
0.0
  0
SPLINE
  5
19D
330
168
100
AcDbEntity
  8
VRSTVA_1
 62
   179
370
    15
100
AcDbSpline
210
0.0
220
0.0
230
1.0
 70
     8
 71
     3
 72
     8
 73
     4
 74
     0
 42
0.000000001
 43
0.00000001
 40
0.0
 40
0.0
 40
0.0
 40
0.0
 40
1.0
 40
1.0
 40
1.0
 40
1.0
 10
24.37755190514692
 20
14.11743818563894
 30
0.0
 10
23.75922500645711
 20
14.11340746698489
 30
0.0
 10
23.15559923798551
 20
13.97976349357537
 30
0.0
 10
22.59748394740781
 20
13.71219706074025
 30
0.0
  0
SPLINE
  5
19E
330
168
100
AcDbEntity
  8
VRSTVA_1
 62
   179
370
    15
100
AcDbSpline
210
0.0
220
0.0
230
1.0
 70
     8
 71
     3
 72
     8
 73
     4
 74
     0
 42
0.000000001
 43
0.00000001
 40
0.0
 40
0.0
 40
0.0
 40
0.0
 40
1.0
 40
1.0
 40
1.0
 40
1.0
 10
26.15763452004479
 20
13.71219706074025
 30
0.0
 10
25.59916745765728
 20
13.97598194661994
 30
0.0
 10
24.99488211704229
 20
14.10936209117209
 30
0.0
 10
24.37755190514692
 20
14.11743818563894
 30
0.0
  0
SPLINE
  5
19F
330
168
100
AcDbEntity
  8
VRSTVA_1
 62
   179
370
    15
100
AcDbSpline
210
0.0
220
0.0
230
1.0
 70
     8
 71
     3
 72
     8
 73
     4
 74
     0
 42
0.000000001
 43
0.00000001
 40
0.0
 40
0.0
 40
0.0
 40
0.0
 40
1.0
 40
1.0
 40
1.0
 40
1.0
 10
22.19224282250912
 20
14.24347509366136
 30
0.0
 10
22.87170473031181
 20
14.59127481345016
 30
0.0
 10
23.6166108518975
 20
14.75852765185507
 30
0.0
 10
24.37755190514692
 20
14.77783112991828
 30
0.0
  0
SPLINE
  5
1A0
330
168
100
AcDbEntity
  8
VRSTVA_1
 62
   179
370
    15
100
AcDbSpline
210
0.0
220
0.0
230
1.0
 70
     8
 71
     3
 72
     8
 73
     4
 74
     0
 42
0.000000001
 43
0.00000001
 40
0.0
 40
0.0
 40
0.0
 40
0.0
 40
1.0
 40
1.0
 40
1.0
 40
1.0
 10
24.37755190514692
 20
14.77783112991828
 30
0.0
 10
25.13139889356524
 20
14.77195360926275
 30
0.0
 10
25.87996930483643
 20
14.58718546616115
 30
0.0
 10
26.55079814614008
 20
14.24347509366136
 30
0.0
  0
SPLINE
  5
1A1
330
168
100
AcDbEntity
  8
VRSTVA_1
 62
   179
370
    15
100
AcDbSpline
210
0.0
220
0.0
230
1.0
 70
     8
 71
     3
 72
     8
 73
     4
 74
     0
 42
0.000000001
 43
0.00000001
 40
0.0
 40
0.0
 40
0.0
 40
0.0
 40
1.0
 40
1.0
 40
1.0
 40
1.0
 10
26.55079814614008
 20
14.24347509366136
 30
0.0
 10
26.83634891275163
 20
14.0893990409655
 30
0.0
 10
27.1083271503681
 20
13.91176893417126
 30
0.0
 10
27.36432908495579
 20
13.71219706074025
 30
0.0
  0
SPLINE
  5
1A2
330
168
100
AcDbEntity
  8
VRSTVA_1
 62
   179
370
    15
100
AcDbSpline
210
0.0
220
0.0
230
1.0
 70
     8
 71
     3
 72
     8
 73
     4
 74
     0
 42
0.000000001
 43
0.00000001
 40
0.0
 40
0.0
 40
0.0
 40
0.0
 40
1.0
 40
1.0
 40
1.0
 40
1.0
 10
31.44370950602796
 20
13.65509277028143
 30
0.0
 10
31.34450985566214
 20
13.85542681596703
 30
0.0
 10
31.23733671094067
 20
14.05177411447479
 30
0.0
 10
31.12254184367335
 20
14.24347509366136
 30
0.0
  0
SPLINE
  5
1A3
330
168
100
AcDbEntity
  8
VRSTVA_1
 62
   179
370
    15
100
AcDbSpline
210
0.0
220
0.0
230
1.0
 70
     8
 71
     3
 72
     8
 73
     4
 74
     0
 42
0.000000001
 43
0.00000001
 40
0.0
 40
0.0
 40
0.0
 40
0.0
 40
1.0
 40
1.0
 40
1.0
 40
1.0
 10
31.12254184367335
 20
14.24347509366136
 30
0.0
 10
30.98250734905234
 20
14.47432534384779
 30
0.0
 10
30.83238872921683
 20
14.69849192964786
 30
0.0
 10
30.67227392711926
 20
14.91584293663291
 30
0.0
  0
SPLINE
  5
1A4
330
168
100
AcDbEntity
  8
VRSTVA_1
 62
   179
370
    15
100
AcDbSpline
210
0.0
220
0.0
230
1.0
 70
     8
 71
     3
 72
     8
 73
     4
 74
     0
 42
0.000000001
 43
0.00000001
 40
0.0
 40
0.0
 40
0.0
 40
0.0
 40
1.0
 40
1.0
 40
1.0
 40
1.0
 10
28.75113081648843
 20
14.67873407966365
 30
0.0
 10
28.4274421228302
 20
14.99777645400068
 30
0.0
 10
28.06711053231699
 20
15.27932581627566
 30
0.0
 10
27.67353650577693
 20
15.50717134891998
 30
0.0
  0
SPLINE
  5
1A5
330
168
100
AcDbEntity
  8
VRSTVA_1
 62
   179
370
    15
100
AcDbSpline
210
0.0
220
0.0
230
1.0
 70
     8
 71
     3
 72
     8
 73
     4
 74
     0
 42
0.000000001
 43
0.00000001
 40
0.0
 40
0.0
 40
0.0
 40
0.0
 40
1.0
 40
1.0
 40
1.0
 40
1.0
 10
27.51734982222223
 20
17.3982965984472
 30
0.0
 10
27.13218900480007
 20
17.56598915161436
 30
0.0
 10
26.7336901729227
 20
17.70318015743943
 30
0.0
 10
26.32566418786302
 20
17.80353772334588
 30
0.0
  0
SPLINE
  5
1A6
330
168
100
AcDbEntity
  8
VRSTVA_1
 62
   179
370
    15
100
AcDbSpline
210
0.0
220
0.0
230
1.0
 70
     8
 71
     3
 72
     8
 73
     4
 74
     0
 42
0.000000001
 43
0.00000001
 40
0.0
 40
0.0
 40
0.0
 40
0.0
 40
1.0
 40
1.0
 40
1.0
 40
1.0
 10
24.99584948951927
 20
16.40172706126145
 30
0.0
 10
24.79029749532153
 20
16.42309719870727
 30
0.0
 10
24.58415921477409
 20
16.43310803812805
 30
0.0
 10
24.37755190514692
 20
16.43174492236505
 30
0.0
  0
SPLINE
  5
1A7
330
168
100
AcDbEntity
  8
VRSTVA_1
 62
   179
370
    15
100
AcDbSpline
210
0.0
220
0.0
230
1.0
 70
     8
 71
     3
 72
     8
 73
     4
 74
     0
 42
0.000000001
 43
0.00000001
 40
0.0
 40
0.0
 40
0.0
 40
0.0
 40
1.0
 40
1.0
 40
1.0
 40
1.0
 10
24.37755190514692
 20
16.43174492236505
 30
0.0
 10
24.16685524823074
 20
16.43354775289032
 30
0.0
 10
23.95668624902928
 20
16.42353691346953
 30
0.0
 10
23.74716216481244
 20
16.40172706126145
 30
0.0
  0
SPLINE
  5
1A8
330
168
100
AcDbEntity
  8
VRSTVA_1
 62
   179
370
    15
100
AcDbSpline
210
0.0
220
0.0
230
1.0
 70
     8
 71
     3
 72
     8
 73
     4
 74
     0
 42
0.000000001
 43
0.00000001
 40
0.0
 40
0.0
 40
0.0
 40
0.0
 40
1.0
 40
1.0
 40
1.0
 40
1.0
 10
22.41431343460909
 20
17.80353772334588
 30
0.0
 10
22.01122691204548
 20
17.70252058529605
 30
0.0
 10
21.61763822834668
 20
17.56704446704378
 30
0.0
 10
21.2376367308017
 20
17.3982965984472
 30
0.0
  0
SPLINE
  5
1A9
330
168
100
AcDbEntity
  8
VRSTVA_1
 62
   179
370
    15
100
AcDbSpline
210
0.0
220
0.0
230
1.0
 70
     8
 71
     3
 72
     8
 73
     4
 74
     0
 42
0.000000001
 43
0.00000001
 40
0.0
 40
0.0
 40
0.0
 40
0.0
 40
1.0
 40
1.0
 40
1.0
 40
1.0
 10
21.06960706298346
 20
15.50717134891998
 30
0.0
 10
20.68466610294244
 20
15.27199723690466
 30
0.0
 10
20.32433451242922
 20
14.99661853846005
 30
0.0
 10
20.00397299380543
 20
14.67873407966365
 30
0.0
  0
SPLINE
  5
1AA
330
168
100
AcDbEntity
  8
VRSTVA_1
 62
   179
370
    15
100
AcDbSpline
210
0.0
220
0.0
230
1.0
 70
     8
 71
     3
 72
     8
 73
     4
 74
     0
 42
0.000000001
 43
0.00000001
 40
0.0
 40
0.0
 40
0.0
 40
0.0
 40
1.0
 40
1.0
 40
1.0
 40
1.0
 10
21.39076006817933
 20
13.71219706074025
 30
0.0
 10
21.64377194238365
 20
13.9097609034236
 30
0.0
 10
21.91163151839363
 20
14.0873030672654
 30
0.0
 10
22.19224282250912
 20
14.24347509366136
 30
0.0
  0
SPLINE
  5
1AB
330
168
100
AcDbEntity
  8
VRSTVA_1
 62
   179
370
    15
100
AcDbSpline
210
0.0
220
0.0
230
1.0
 70
     8
 71
     3
 72
     8
 73
     4
 74
     0
 42
0.000000001
 43
0.00000001
 40
0.0
 40
0.0
 40
0.0
 40
0.0
 40
1.0
 40
1.0
 40
1.0
 40
1.0
 10
33.74233531495118
 20
13.71212396840827
 30
0.0
 10
32.23516899582929
 20
17.58533679461553
 30
0.0
 10
28.48815430639059
 20
20.17509551557997
 30
0.0
 10
24.33478454798882
 20
20.2019474303953
 30
0.0
  0
SPLINE
  5
1AC
330
168
100
AcDbEntity
  8
VRSTVA_1
 62
   179
370
    15
100
AcDbSpline
210
0.0
220
0.0
230
1.0
 70
     8
 71
     3
 72
     8
 73
     4
 74
     0
 42
0.000000001
 43
0.00000001
 40
0.0
 40
0.0
 40
0.0
 40
0.0
 40
1.0
 40
1.0
 40
1.0
 40
1.0
 10
24.37755190514692
 20
20.20202052272727
 30
0.0
 10
20.91289272171406
 20
20.18787636454125
 30
0.0
 10
17.71237019597067
 20
18.38360943771909
 30
0.0
 10
15.84040185291924
 20
15.47715348781637
 30
0.0
  0
SPLINE
  5
1AD
330
168
100
AcDbEntity
  8
VRSTVA_1
 62
   179
370
    15
100
AcDbSpline
210
0.0
220
0.0
230
1.0
 70
     8
 71
     3
 72
     8
 73
     4
 74
     0
 42
0.000000001
 43
0.00000001
 40
0.0
 40
0.0
 40
0.0
 40
0.0
 40
1.0
 40
1.0
 40
1.0
 40
1.0
 10
19.49963481865211
 20
15.19808118536878
 30
0.0
 10
19.8672510170601
 20
15.54909082292208
 30
0.0
 10
20.27350348591199
 20
15.85655404185292
 30
0.0
 10
20.7063586978806
 20
16.12253750154392
 30
0.0
  0
SPLINE
  5
1AE
330
168
100
AcDbEntity
  8
VRSTVA_1
 62
   179
370
    15
100
AcDbSpline
210
0.0
220
0.0
230
1.0
 70
     8
 71
     3
 72
     8
 73
     4
 74
     0
 42
0.000000001
 43
0.00000001
 40
0.0
 40
0.0
 40
0.0
 40
0.0
 40
1.0
 40
1.0
 40
1.0
 40
1.0
 10
20.43923197980772
 20
17.81854665389768
 30
0.0
 10
21.17631117862519
 20
18.19168860115141
 30
0.0
 10
21.95570559473081
 20
18.45598648758707
 30
0.0
 10
22.76561621533724
 20
18.61705400500286
 30
0.0
  0
SPLINE
  5
1AF
330
168
100
AcDbEntity
  8
VRSTVA_1
 62
   179
370
    15
100
AcDbSpline
210
0.0
220
0.0
230
1.0
 70
     8
 71
     3
 72
     8
 73
     4
 74
     0
 42
0.000000001
 43
0.00000001
 40
0.0
 40
0.0
 40
0.0
 40
0.0
 40
1.0
 40
1.0
 40
1.0
 40
1.0
 10
23.67812694713765
 20
17.1192242959996
 30
0.0
 10
23.91089728511928
 20
17.13798545918936
 30
0.0
 10
24.14406336638695
 20
17.1469702974982
 30
0.0
 10
24.37755190514692
 20
17.14617881092613
 30
0.0
  0
SPLINE
  5
1B0
330
168
100
AcDbEntity
  8
VRSTVA_1
 62
   179
370
    15
100
AcDbSpline
210
0.0
220
0.0
230
1.0
 70
     8
 71
     3
 72
     8
 73
     4
 74
     0
 42
0.000000001
 43
0.00000001
 40
0.0
 40
0.0
 40
0.0
 40
0.0
 40
1.0
 40
1.0
 40
1.0
 40
1.0
 10
24.37755190514692
 20
17.14617881092613
 30
0.0
 10
24.60708301104658
 20
17.14733672646675
 30
0.0
 10
24.83623303081894
 20
17.1383518881579
 30
0.0
 10
25.06491402151156
 20
17.1192242959996
 30
0.0
  0
SPLINE
  5
1B1
330
168
100
AcDbEntity
  8
VRSTVA_1
 62
   179
370
    15
100
AcDbSpline
210
0.0
220
0.0
230
1.0
 70
     8
 71
     3
 72
     8
 73
     4
 74
     0
 42
0.000000001
 43
0.00000001
 40
0.0
 40
0.0
 40
0.0
 40
0.0
 40
1.0
 40
1.0
 40
1.0
 40
1.0
 10
25.97752735342316
 20
18.61705400500286
 30
0.0
 10
26.78897697569749
 20
18.4586834047956
 30
0.0
 10
27.56779976261216
 20
18.19523563356697
 30
0.0
 10
28.30391158895267
 20
17.81854665389768
 30
0.0
  0
SPLINE
  5
1B2
330
168
100
AcDbEntity
  8
VRSTVA_1
 62
   179
370
    15
100
AcDbSpline
210
0.0
220
0.0
230
1.0
 70
     8
 71
     3
 72
     8
 73
     4
 74
     0
 42
0.000000001
 43
0.00000001
 40
0.0
 40
0.0
 40
0.0
 40
0.0
 40
1.0
 40
1.0
 40
1.0
 40
1.0
 10
28.0516912013204
 20
16.12253750154392
 30
0.0
 10
28.47944572204681
 20
15.85576255528084
 30
0.0
 10
28.8787946691312
 20
15.54617404833242
 30
0.0
 10
29.24337683567961
 20
15.19808118536878
 30
0.0
  0
SPLINE
  5
1B3
330
168
100
AcDbEntity
  8
VRSTVA_1
 62
   179
370
    15
100
AcDbSpline
210
0.0
220
0.0
230
1.0
 70
     8
 71
     3
 72
     8
 73
     4
 74
     0
 42
0.000000001
 43
0.00000001
 40
0.0
 40
0.0
 40
0.0
 40
0.0
 40
1.0
 40
1.0
 40
1.0
 40
1.0
 10
30.91241681594812
 20
15.75937707939349
 30
0.0
 10
31.30311803937474
 20
15.28734328210753
 30
0.0
 10
31.65682459413657
 20
14.78316633570036
 30
0.0
 10
31.94803302402255
 20
14.24347509366136
 30
0.0
  0
SPLINE
  5
1B4
330
168
100
AcDbEntity
  8
VRSTVA_1
 62
   179
370
    15
100
AcDbSpline
210
0.0
220
0.0
230
1.0
 70
     8
 71
     3
 72
     8
 73
     4
 74
     0
 42
0.000000001
 43
0.00000001
 40
0.0
 40
0.0
 40
0.0
 40
0.0
 40
1.0
 40
1.0
 40
1.0
 40
1.0
 10
31.94803302402255
 20
14.24347509366136
 30
0.0
 10
32.03368945971076
 20
14.08120568922873
 30
0.0
 10
32.11773360793736
 20
13.9181008267478
 30
0.0
 10
32.20013615438486
 20
13.75416050621858
 30
0.0
  0
SPLINE
  5
1B5
330
168
100
AcDbEntity
  8
VRSTVA_1
 62
   179
370
    15
100
AcDbSpline
210
0.0
220
0.0
230
1.0
 70
     8
 71
     3
 72
     8
 73
     4
 74
     0
 42
0.000000001
 43
0.00000001
 40
0.0
 40
0.0
 40
0.0
 40
0.0
 40
1.0
 40
1.0
 40
1.0
 40
1.0
 10
24.40756976625053
 20
6.084596994247081
 30
0.0
 10
25.02525174995571
 20
6.089257970727037
 30
0.0
 10
25.6247588568208
 20
6.238848932847842
 30
0.0
 10
26.1876523811484
 20
6.489838119145771
 30
0.0
  0
SPLINE
  5
1B6
330
168
100
AcDbEntity
  8
VRSTVA_1
 62
   179
370
    15
100
AcDbSpline
210
0.0
220
0.0
230
1.0
 70
     8
 71
     3
 72
     8
 73
     4
 74
     0
 42
0.000000001
 43
0.00000001
 40
0.0
 40
0.0
 40
0.0
 40
0.0
 40
1.0
 40
1.0
 40
1.0
 40
1.0
 10
22.62443846233435
 20
6.489838119145771
 30
0.0
 10
23.18673104315352
 20
6.232722240493687
 30
0.0
 10
23.78837809519494
 20
6.090635743648785
 30
0.0
 10
24.40756976625053
 20
6.084596994247081
 30
0.0
  0
SPLINE
  5
1B7
330
168
100
AcDbEntity
  8
VRSTVA_1
 62
   179
370
    15
100
AcDbSpline
210
0.0
220
0.0
230
1.0
 70
     8
 71
     3
 72
     8
 73
     4
 74
     0
 42
0.000000001
 43
0.00000001
 40
0.0
 40
0.0
 40
0.0
 40
0.0
 40
1.0
 40
1.0
 40
1.0
 40
1.0
 10
26.57788457549529
 20
5.958545429065921
 30
0.0
 10
25.90497441765027
 20
5.608444535354617
 30
0.0
 10
25.16341012825776
 20
5.443053156109941
 30
0.0
 10
24.40756976625053
 20
5.424204049967737
 30
0.0
  0
SPLINE
  5
1B8
330
168
100
AcDbEntity
  8
VRSTVA_1
 62
   179
370
    15
100
AcDbSpline
210
0.0
220
0.0
230
1.0
 70
     8
 71
     3
 72
     8
 73
     4
 74
     0
 42
0.000000001
 43
0.00000001
 40
0.0
 40
0.0
 40
0.0
 40
0.0
 40
1.0
 40
1.0
 40
1.0
 40
1.0
 10
24.40756976625053
 20
5.424204049967737
 30
0.0
 10
23.64809442887531
 20
5.430066913464534
 30
0.0
 10
22.89758927265016
 20
5.618499346251627
 30
0.0
 10
22.21919733743565
 20
5.958545429065921
 30
0.0
  0
SPLINE
  5
1B9
330
168
100
AcDbEntity
  8
VRSTVA_1
 62
   179
370
    15
100
AcDbSpline
210
0.0
220
0.0
230
1.0
 70
     8
 71
     3
 72
     8
 73
     4
 74
     0
 42
0.000000001
 43
0.00000001
 40
0.0
 40
0.0
 40
0.0
 40
0.0
 40
1.0
 40
1.0
 40
1.0
 40
1.0
 10
22.21919733743565
 20
5.958545429065921
 30
0.0
 10
21.9390550623999
 20
6.114644169668172
 30
0.0
 10
21.6727931166928
 20
6.291790590223931
 30
0.0
 10
21.42077792928294
 20
6.489838119145771
 30
0.0
  0
SPLINE
  5
1BA
330
168
100
AcDbEntity
  8
VRSTVA_1
 62
   179
370
    15
100
AcDbSpline
210
0.0
220
0.0
230
1.0
 70
     8
 71
     3
 72
     8
 73
     4
 74
     0
 42
0.000000001
 43
0.00000001
 40
0.0
 40
0.0
 40
0.0
 40
0.0
 40
1.0
 40
1.0
 40
1.0
 40
1.0
 10
17.32628597754777
 20
6.546825152334651
 30
0.0
 10
17.43577495335047
 20
6.352090141288498
 30
0.0
 10
17.54293344091321
 20
6.155889414368149
 30
0.0
 10
17.64757089717231
 20
5.958545429065921
 30
0.0
  0
SPLINE
  5
1BB
330
168
100
AcDbEntity
  8
VRSTVA_1
 62
   179
370
    15
100
AcDbSpline
210
0.0
220
0.0
230
1.0
 70
     8
 71
     3
 72
     8
 73
     4
 74
     0
 42
0.000000001
 43
0.00000001
 40
0.0
 40
0.0
 40
0.0
 40
0.0
 40
1.0
 40
1.0
 40
1.0
 40
1.0
 10
17.64757089717231
 20
5.958545429065921
 30
0.0
 10
17.78879262165143
 20
5.725525919385677
 30
0.0
 10
17.94289798866478
 20
5.501330019268115
 30
0.0
 10
18.10981371241862
 20
5.28607498598317
 30
0.0
  0
SPLINE
  5
1BC
330
168
100
AcDbEntity
  8
VRSTVA_1
 62
   179
370
    15
100
AcDbSpline
210
0.0
220
0.0
230
1.0
 70
     8
 71
     3
 72
     8
 73
     4
 74
     0
 42
0.000000001
 43
0.00000001
 40
0.0
 40
0.0
 40
0.0
 40
0.0
 40
1.0
 40
1.0
 40
1.0
 40
1.0
 10
20.01898192435723
 20
5.523286443063625
 30
0.0
 10
20.35222708551524
 20
5.217069082625855
 30
0.0
 10
20.7151529931258
 20
4.941309298053954
 30
0.0
 10
21.09659089222749
 20
4.697795262714441
 30
0.0
  0
SPLINE
  5
1BD
330
168
100
AcDbEntity
  8
VRSTVA_1
 62
   179
370
    15
100
AcDbSpline
210
0.0
220
0.0
230
1.0
 70
     8
 71
     3
 72
     8
 73
     4
 74
     0
 42
0.000000001
 43
0.00000001
 40
0.0
 40
0.0
 40
0.0
 40
0.0
 40
1.0
 40
1.0
 40
1.0
 40
1.0
 10
21.26472316015691
 20
2.803650638486373
 30
0.0
 10
21.6451497153054
 20
2.634331140698841
 30
0.0
 10
22.03976440011614
 20
2.49769710690596
 30
0.0
 10
22.4443312957127
 20
2.398409513587682
 30
0.0
  0
SPLINE
  5
1BE
330
168
100
AcDbEntity
  8
VRSTVA_1
 62
   179
370
    15
100
AcDbSpline
210
0.0
220
0.0
230
1.0
 70
     8
 71
     3
 72
     8
 73
     4
 74
     0
 42
0.000000001
 43
0.00000001
 40
0.0
 40
0.0
 40
0.0
 40
0.0
 40
1.0
 40
1.0
 40
1.0
 40
1.0
 10
23.77414599405646
 20
3.800190861354642
 30
0.0
 10
23.98507716551252
 20
3.785592331247614
 30
0.0
 10
24.19621353719096
 20
3.775596148985573
 30
0.0
 10
24.40756976625053
 20
3.770173000251034
 30
0.0
  0
SPLINE
  5
1BF
330
168
100
AcDbEntity
  8
VRSTVA_1
 62
   179
370
    15
100
AcDbSpline
210
0.0
220
0.0
230
1.0
 70
     8
 71
     3
 72
     8
 73
     4
 74
     0
 42
0.000000001
 43
0.00000001
 40
0.0
 40
0.0
 40
0.0
 40
0.0
 40
1.0
 40
1.0
 40
1.0
 40
1.0
 10
24.40756976625053
 20
3.770173000251034
 30
0.0
 10
24.61294587454338
 20
3.775273691493249
 30
0.0
 10
24.81805815397886
 20
3.785269873755291
 30
0.0
 10
25.02293591887447
 20
3.800190861354642
 30
0.0
  0
SPLINE
  5
1C0
330
168
100
AcDbEntity
  8
VRSTVA_1
 62
   179
370
    15
100
AcDbSpline
210
0.0
220
0.0
230
1.0
 70
     8
 71
     3
 72
     8
 73
     4
 74
     0
 42
0.000000001
 43
0.00000001
 40
0.0
 40
0.0
 40
0.0
 40
0.0
 40
1.0
 40
1.0
 40
1.0
 40
1.0
 10
26.35568204896664
 20
2.398409513587682
 30
0.0
 10
26.76362009107385
 20
2.49939733732003
 30
0.0
 10
27.16235343749109
 20
2.634682912508648
 30
0.0
 10
27.54736768332584
 20
2.803650638486373
 30
0.0
  0
SPLINE
  5
1C1
330
168
100
AcDbEntity
  8
VRSTVA_1
 62
   179
370
    15
100
AcDbSpline
210
0.0
220
0.0
230
1.0
 70
     8
 71
     3
 72
     8
 73
     4
 74
     0
 42
0.000000001
 43
0.00000001
 40
0.0
 40
0.0
 40
0.0
 40
0.0
 40
1.0
 40
1.0
 40
1.0
 40
1.0
 10
27.7005056778622
 20
4.697795262714441
 30
0.0
 10
28.0890669561125
 20
4.93172351623669
 30
0.0
 10
28.45098151976984
 20
5.212349477510934
 30
0.0
 10
28.78114867759204
 20
5.523286443063625
 30
0.0
  0
SPLINE
  5
1C2
330
168
100
AcDbEntity
  8
VRSTVA_1
 62
   179
370
    15
100
AcDbSpline
210
0.0
220
0.0
230
1.0
 70
     8
 71
     3
 72
     8
 73
     4
 74
     0
 42
0.000000001
 43
0.00000001
 40
0.0
 40
0.0
 40
0.0
 40
0.0
 40
1.0
 40
1.0
 40
1.0
 40
1.0
 10
27.39129825704107
 20
6.489838119145771
 30
0.0
 10
27.13368403499175
 20
6.293549449272969
 30
0.0
 10
26.86346465642433
 20
6.116403028717212
 30
0.0
 10
26.58081600724369
 20
5.958545429065921
 30
0.0
  0
SPLINE
  5
1C3
330
168
100
AcDbEntity
  8
VRSTVA_1
 62
   179
370
    15
100
AcDbSpline
210
0.0
220
0.0
230
1.0
 70
     8
 71
     3
 72
     8
 73
     4
 74
     0
 42
0.000000001
 43
0.00000001
 40
0.0
 40
0.0
 40
0.0
 40
0.0
 40
1.0
 40
1.0
 40
1.0
 40
1.0
 10
14.98489281146645
 20
6.489838119145771
 30
0.0
 10
16.49362744657375
 20
2.614426719127212
 30
0.0
 10
20.25383357888023
 20
0.026822600497853
 30
0.0
 10
24.40756976625053
 20
0.0000000000000009
 30
0.0
  0
SPLINE
  5
1C4
330
168
100
AcDbEntity
  8
VRSTVA_1
 62
   179
370
    15
100
AcDbSpline
210
0.0
220
0.0
230
1.0
 70
     8
 71
     3
 72
     8
 73
     4
 74
     0
 42
0.000000001
 43
0.00000001
 40
0.0
 40
0.0
 40
0.0
 40
0.0
 40
1.0
 40
1.0
 40
1.0
 40
1.0
 10
24.40756976625053
 20
0.0000000000000017
 30
0.0
 10
27.84871886706126
 20
0.014393329884641
 30
0.0
 10
31.09211358212498
 20
1.811448934605733
 30
0.0
 10
32.92959363065649
 20
4.724793749117197
 30
0.0
  0
SPLINE
  5
1C5
330
168
100
AcDbEntity
  8
VRSTVA_1
 62
   179
370
    15
100
AcDbSpline
210
0.0
220
0.0
230
1.0
 70
     8
 71
     3
 72
     8
 73
     4
 74
     0
 42
0.000000001
 43
0.00000001
 40
0.0
 40
0.0
 40
0.0
 40
0.0
 40
1.0
 40
1.0
 40
1.0
 40
1.0
 10
29.27046326503481
 20
5.003953994517241
 30
0.0
 10
28.90743475731308
 20
4.653941043758391
 30
0.0
 10
28.50735295229157
 20
4.344938823159644
 30
0.0
 10
28.07877763067561
 20
4.079409735389654
 30
0.0
  0
SPLINE
  5
1C6
330
168
100
AcDbEntity
  8
VRSTVA_1
 62
   179
370
    15
100
AcDbSpline
210
0.0
220
0.0
230
1.0
 70
     8
 71
     3
 72
     8
 73
     4
 74
     0
 42
0.000000001
 43
0.00000001
 40
0.0
 40
0.0
 40
0.0
 40
0.0
 40
1.0
 40
1.0
 40
1.0
 40
1.0
 10
28.33088076103794
 20
2.383400583035879
 30
0.0
 10
27.60095425568657
 20
1.997096507231847
 30
0.0
 10
26.81377688828895
 20
1.742355088295967
 30
0.0
 10
26.00449652550842
 20
1.584966517724421
 30
0.0
  0
SPLINE
  5
1C7
330
168
100
AcDbEntity
  8
VRSTVA_1
 62
   179
370
    15
100
AcDbSpline
210
0.0
220
0.0
230
1.0
 70
     8
 71
     3
 72
     8
 73
     4
 74
     0
 42
0.000000001
 43
0.00000001
 40
0.0
 40
0.0
 40
0.0
 40
0.0
 40
1.0
 40
1.0
 40
1.0
 40
1.0
 10
25.09200045086676
 20
3.082810883886417
 30
0.0
 10
24.86411094674622
 20
3.067362238572354
 30
0.0
 10
24.63595761376831
 20
3.058392057422251
 30
0.0
 10
24.40756976625053
 20
3.055841711801146
 30
0.0
  0
SPLINE
  5
1C8
330
168
100
AcDbEntity
  8
VRSTVA_1
 62
   179
370
    15
100
AcDbSpline
210
0.0
220
0.0
230
1.0
 70
     8
 71
     3
 72
     8
 73
     4
 74
     0
 42
0.000000001
 43
0.00000001
 40
0.0
 40
0.0
 40
0.0
 40
0.0
 40
1.0
 40
1.0
 40
1.0
 40
1.0
 10
24.40756976625053
 20
3.055841711801146
 30
0.0
 10
24.17327508375974
 20
3.061382117805621
 30
0.0
 10
23.93911231569763
 20
3.070352298955719
 30
0.0
 10
23.70508146206419
 20
3.082810883886417
 30
0.0
  0
SPLINE
  5
1C9
330
168
100
AcDbEntity
  8
VRSTVA_1
 62
   179
370
    15
100
AcDbSpline
210
0.0
220
0.0
230
1.0
 70
     8
 71
     3
 72
     8
 73
     4
 74
     0
 42
0.000000001
 43
0.00000001
 40
0.0
 40
0.0
 40
0.0
 40
0.0
 40
1.0
 40
1.0
 40
1.0
 40
1.0
 10
22.79260004458126
 20
1.584966517724421
 30
0.0
 10
21.98095987924326
 20
1.744084633027523
 30
0.0
 10
21.20461415215599
 20
2.011226008259131
 30
0.0
 10
20.46621580905175
 20
2.383400583035879
 30
0.0
  0
SPLINE
  5
1CA
330
168
100
AcDbEntity
  8
VRSTVA_1
 62
   179
370
    15
100
AcDbSpline
210
0.0
220
0.0
230
1.0
 70
     8
 71
     3
 72
     8
 73
     4
 74
     0
 42
0.000000001
 43
0.00000001
 40
0.0
 40
0.0
 40
0.0
 40
0.0
 40
1.0
 40
1.0
 40
1.0
 40
1.0
 10
20.73331321280712
 20
4.079409735389654
 30
0.0
 10
20.30174783080781
 20
4.347489168780749
 30
0.0
 10
19.89476250401882
 20
4.653618586266068
 30
0.0
 10
19.52661864789613
 20
5.003953994517241
 30
0.0
  0
SPLINE
  5
1CB
330
168
100
AcDbEntity
  8
VRSTVA_1
 62
   179
370
    15
100
AcDbSpline
210
0.0
220
0.0
230
1.0
 70
     8
 71
     3
 72
     8
 73
     4
 74
     0
 42
0.000000001
 43
0.00000001
 40
0.0
 40
0.0
 40
0.0
 40
0.0
 40
1.0
 40
1.0
 40
1.0
 40
1.0
 10
17.87270485544936
 20
4.442643443333786
 30
0.0
 10
17.47268167906282
 20
4.911320751267831
 30
0.0
 10
17.11340540397903
 20
5.414882097007826
 30
0.0
 10
16.82207971682313
 20
5.958545429065921
 30
0.0
  0
SPLINE
  5
1CC
330
168
100
AcDbEntity
  8
VRSTVA_1
 62
   179
370
    15
100
AcDbSpline
210
0.0
220
0.0
230
1.0
 70
     8
 71
     3
 72
     8
 73
     4
 74
     0
 42
0.000000001
 43
0.00000001
 40
0.0
 40
0.0
 40
0.0
 40
0.0
 40
1.0
 40
1.0
 40
1.0
 40
1.0
 10
16.82207971682313
 20
5.958545429065921
 30
0.0
 10
16.73840199756507
 20
6.119862118180324
 30
0.0
 10
16.6583445965163
 20
6.282966980661247
 30
0.0
 10
16.58193682799427
 20
6.447860016508697
 30
0.0
  0
HATCH
  5
1CD
330
168
100
AcDbEntity
  8
KOTY
 62
     7
100
AcDbHatch
 10
0.0
 20
0.0
 30
0.0
210
0.0
220
0.0
230
1.0
  2
ANSI31
 70
     0
 71
     0
 91
        1
 92
        0
 93
       19
 72
     4
 94
        3
 73
     1
 74
     0
 95
        8
 96
        4
 40
0.0
 40
0.0
 40
0.0
 40
0.0
 40
1.0
 40
1.0
 40
1.0
 40
1.0
 10
43.93109671266716
 20
23.14351157874002
 42
1.0
 10
44.32179793609378
 20
22.67147778145407
 42
1.0
 10
44.67550449085562
 20
22.1673008350469
 42
1.0
 10
44.96671292074159
 20
21.6276095930079
 42
1.0
 72
     4
 94
        3
 73
     1
 74
     0
 95
        8
 96
        4
 40
0.0
 40
0.0
 40
0.0
 40
0.0
 40
1.0
 40
1.0
 40
1.0
 40
1.0
 10
44.96671292074159
 20
21.6276095930079
 42
1.0
 10
45.05236935642981
 20
21.46534018857526
 42
1.0
 10
45.13641350465641
 20
21.30223532609434
 42
1.0
 10
45.2188160511039
 20
21.13829500556512
 42
1.0
 72
     1
 10
45.2188160511039
 20
21.13829500556512
 11
45.23646874431782
 21
21.09365291380189
 72
     1
 10
45.23646874431782
 20
21.09365291380189
 11
46.76101521167023
 21
21.09625846775481
 72
     4
 94
        3
 73
     1
 74
     0
 95
        8
 96
        4
 40
0.0
 40
0.0
 40
0.0
 40
0.0
 40
0.9989561164912137
 40
0.9989561164912137
 40
0.9989561164912137
 40
0.9989561164912137
 10
46.76101521167023
 20
21.09625846775481
 42
1.0
 10
45.25542219861386
 20
24.96542811096677
 42
1.0
 10
41.51465465604601
 20
27.55382180351473
 42
1.0
 10
37.36647001680576
 20
27.58598946204093
 42
1.0
 72
     4
 94
        3
 73
     1
 74
     0
 95
        8
 96
        4
 40
0.0028639959660222
 40
0.0028639959660222
 40
0.0028639959660222
 40
0.0028639959660222
 40
1.0
 40
1.0
 40
1.0
 40
1.0
 10
37.36647001681743
 20
27.58598946149822
 42
1.0
 10
33.91325094865698
 20
27.5616669968121
 42
1.0
 10
30.72568878290669
 20
25.75941985894968
 42
1.0
 10
28.85908174963829
 20
22.8612879871629
 42
1.0
 72
     1
 10
28.85908174963827
 20
22.8612879871629
 11
30.86429832281319
 21
23.14351157874002
 72
     1
 10
30.86429832281319
 20
23.14351157874002
 11
32.51831471537115
 21
22.58221568471532
 72
     4
 94
        3
 73
     1
 74
     0
 95
        8
 96
        4
 40
0.0
 40
0.0
 40
0.0
 40
0.0
 40
1.0
 40
1.0
 40
1.0
 40
1.0
 10
32.51831471537115
 20
22.58221568471532
 42
1.0
 10
32.88593091377914
 20
22.93322532226862
 42
1.0
 10
33.29218338263103
 20
23.24068854119946
 42
1.0
 10
33.72503859459964
 20
23.50667200089045
 42
1.0
 72
     1
 10
33.72503859459964
 20
23.50667200089045
 11
33.45791187652676
 21
25.20268115324422
 72
     4
 94
        3
 73
     1
 74
     0
 95
        8
 96
        4
 40
0.0
 40
0.0
 40
0.0
 40
0.0
 40
1.0
 40
1.0
 40
1.0
 40
1.0
 10
33.45791187652676
 20
25.20268115324422
 42
1.0
 10
34.19499107534424
 20
25.57582310049794
 42
1.0
 10
34.97438549144985
 20
25.84012098693361
 42
1.0
 10
35.78429611205629
 20
26.0011885043494
 42
1.0
 72
     1
 10
35.78429611205629
 20
26.0011885043494
 11
36.69680684385669
 21
24.50335879534614
 72
     4
 94
        3
 73
     1
 74
     0
 95
        8
 96
        4
 40
0.0
 40
0.0
 40
0.0
 40
0.0
 40
1.0
 40
1.0
 40
1.0
 40
1.0
 10
36.69680684385669
 20
24.50335879534614
 42
1.0
 10
36.92957718183833
 20
24.52211995853589
 42
1.0
 10
37.16274326310599
 20
24.53110479684474
 42
1.0
 10
37.39623180186597
 20
24.53031331027267
 42
1.0
 72
     4
 94
        3
 73
     1
 74
     0
 95
        8
 96
        4
 40
0.0
 40
0.0
 40
0.0
 40
0.0
 40
1.0
 40
1.0
 40
1.0
 40
1.0
 10
37.39623180186597
 20
24.53031331027267
 42
1.0
 10
37.62576290776563
 20
24.53147122581329
 42
1.0
 10
37.85491292753798
 20
24.52248638750444
 42
1.0
 10
38.0835939182306
 20
24.50335879534614
 42
1.0
 72
     1
 10
38.0835939182306
 20
24.50335879534614
 11
38.99620725014221
 21
26.0011885043494
 72
     4
 94
        3
 73
     1
 74
     0
 95
        8
 96
        4
 40
0.0
 40
0.0
 40
0.0
 40
0.0
 40
1.0
 40
1.0
 40
1.0
 40
1.0
 10
38.99620725014221
 20
26.0011885043494
 42
1.0
 10
39.80765687241654
 20
25.84281790414213
 42
1.0
 10
40.58647965933121
 20
25.57937013291351
 42
1.0
 10
41.32259148567171
 20
25.20268115324422
 42
1.0
 72
     1
 10
41.32259148567171
 20
25.20268115324422
 11
41.07037109803944
 21
23.50667200089045
 72
     4
 94
        3
 73
     1
 74
     0
 95
        8
 96
        4
 40
0.0
 40
0.0
 40
0.0
 40
0.0
 40
1.0
 40
1.0
 40
1.0
 40
1.0
 10
41.07037109803944
 20
23.50667200089045
 42
1.0
 10
41.49812561876585
 20
23.23989705462738
 42
1.0
 10
41.89747456585025
 20
22.93030854767896
 42
1.0
 10
42.26205673239865
 20
22.58221568471532
 42
1.0
 72
     1
 10
42.26205673239865
 20
22.58221568471531
 11
43.93109671266716
 21
23.14351157874002
 97
        0
 75
     0
 76
     1
 52
0.0
 41
1.0
 77
     0
 78
     1
 53
45.0
 43
0.0
 44
0.0
 45
-2.245064030267288
 46
2.245064030267288
 79
     0
 98
        1
 10
0.0
 20
0.0
  0
HATCH
  5
1CE
330
168
100
AcDbEntity
  8
KOTY
 62
     7
100
AcDbHatch
 10
0.0
 20
0.0
 30
0.0
210
0.0
220
0.0
230
1.0
  2
ANSI31
 70
     0
 71
     0
 91
        1
 92
        0
 93
        3
 72
     1
 10
35.61616384412686
 20
21.09633156008679
 11
39.17631441676384
 21
21.09633156008679
 72
     4
 94
        3
 73
     1
 74
     0
 95
        8
 96
        4
 40
0.0
 40
0.0
 40
0.0
 40
0.0
 40
1.0
 40
1.0
 40
1.0
 40
1.0
 10
39.17631441676384
 20
21.09633156008679
 42
1.0
 10
38.61784735437632
 20
21.36011644596648
 42
1.0
 10
38.01356201376134
 20
21.49349659051863
 42
1.0
 10
37.39623180186597
 20
21.50157268498548
 42
1.0
 72
     4
 94
        3
 73
     1
 74
     0
 95
        8
 96
        4
 40
0.0
 40
0.0
 40
0.0
 40
0.0
 40
1.0
 40
1.0
 40
1.0
 40
1.0
 10
37.39623180186597
 20
21.50157268498548
 42
1.0
 10
36.77790490317616
 20
21.49754196633143
 42
1.0
 10
36.17427913470456
 20
21.36389799292191
 42
1.0
 10
35.61616384412686
 20
21.09633156008679
 42
1.0
 97
        0
 75
     0
 76
     1
 52
0.0
 41
1.0
 77
     0
 78
     1
 53
45.0
 43
0.0
 44
0.0
 45
-2.245064030267288
 46
2.245064030267288
 79
     0
 98
        1
 10
0.0
 20
0.0
  0
HATCH
  5
1CF
330
168
100
AcDbEntity
  8
KOTY
 62
     7
100
AcDbHatch
 10
0.0
 20
0.0
 30
0.0
210
0.0
220
0.0
230
1.0
  2
ANSI31
 70
     0
 71
     0
 91
        1
 92
        0
 93
        3
 72
     1
 10
39.20633227786745
 20
13.87397261849231
 11
35.64311835905339
 21
13.87397261849231
 72
     4
 94
        3
 73
     1
 74
     0
 95
        8
 96
        4
 40
0.0
 40
0.0
 40
0.0
 40
0.0
 40
1.0
 40
1.0
 40
1.0
 40
1.0
 10
35.64311835905339
 20
13.87397261849231
 42
1.0
 10
36.20541093987256
 20
13.61685673984022
 42
1.0
 10
36.80705799191399
 20
13.47477024299532
 42
1.0
 10
37.42624966296957
 20
13.46873149359362
 42
1.0
 72
     4
 94
        3
 73
     1
 74
     0
 95
        8
 96
        4
 40
0.0
 40
0.0
 40
0.0
 40
0.0
 40
1.0
 40
1.0
 40
1.0
 40
1.0
 10
37.42624966296957
 20
13.46873149359362
 42
1.0
 10
38.04393164667476
 20
13.47339247007358
 42
1.0
 10
38.64343875353985
 20
13.62298343219438
 42
1.0
 10
39.20633227786745
 20
13.87397261849231
 42
1.0
 97
        0
 75
     0
 76
     1
 52
0.0
 41
1.0
 77
     0
 78
     1
 53
45.0
 43
0.0
 44
0.0
 45
-2.245064030267288
 46
2.245064030267288
 79
     0
 98
        1
 10
0.0
 20
0.0
  0
INSERT
  5
1D0
330
168
100
AcDbEntity
  8
0
  6
Continuous
 62
     7
100
AcDbBlockReference
  2
BLOCK 2
 10
-0.0076217225
 20
-0.0076803512
 30
0.0
 41
0.00335
 42
0.00335
 43
0.00335
  0
ENDBLK
  5
16A
330
168
100
AcDbEntity
  8
0
100
AcDbBlockEnd
  0
BLOCK
  5
24D
330
24C
100
AcDbEntity
  8
0
100
AcDbBlockBegin
  2
_CLOSED
 70
     0
 10
0.0
 20
0.0
 30
0.0
  3
_CLOSED
  1

  0
LINE
  5
24F
330
24C
100
AcDbEntity
  8
0
  6
ByBlock
 62
     0
370
    -2
100
AcDbLine
 10
-1.0
 20
0.166667
 30
0.0
 11
0.0
 21
0.0
 31
0.0
  0
LINE
  5
250
330
24C
100
AcDbEntity
  8
0
  6
ByBlock
 62
     0
370
    -2
100
AcDbLine
 10
0.0
 20
0.0
 30
0.0
 11
-1.0
 21
-0.166667
 31
0.0
  0
LINE
  5
251
330
24C
100
AcDbEntity
  8
0
  6
ByBlock
 62
     0
370
    -2
100
AcDbLine
 10
-1.0
 20
0.166667
 30
0.0
 11
-1.0
 21
-0.166667
 31
0.0
  0
LINE
  5
252
330
24C
100
AcDbEntity
  8
0
  6
ByBlock
 62
     0
370
    -2
100
AcDbLine
 10
0.0
 20
0.0
 30
0.0
 11
-1.0
 21
0.0
 31
0.0
  0
ENDBLK
  5
24E
330
24C
100
AcDbEntity
  8
0
100
AcDbBlockEnd
  0
BLOCK
  5
254
330
253
100
AcDbEntity
  8
0
100
AcDbBlockBegin
  2
_D
 70
     0
 10
0.0
 20
0.0
 30
0.0
  3
_D
  1

  0
INSERT
  5
256
330
253
100
AcDbEntity
  8
KOTY
100
AcDbBlockReference
  2
_CLOSED
 10
118.0219809167
 20
208.7883869042
 30
-0.5
 41
3.302
 42
3.302
 50
180.0
  0
INSERT
  5
257
330
253
100
AcDbEntity
  8
KOTY
100
AcDbBlockReference
  2
_CLOSED
 10
293.194026045
 20
208.7883869042
 30
-0.5
 41
3.302
 42
3.302
 50
0.0
  0
LINE
  5
258
330
253
100
AcDbEntity
  8
KOTY
100
AcDbLine
 10
118.0219809167
 20
190.701883887
 30
0.0
 11
118.0219809167
 21
209.7883869042
 31
0.0
  0
LINE
  5
259
330
253
100
AcDbEntity
  8
KOTY
100
AcDbLine
 10
293.194026045
 20
190.701883887
 30
0.0
 11
293.194026045
 21
209.7883869042
 31
0.0
  0
LINE
  5
25A
330
253
100
AcDbEntity
  8
KOTY
100
AcDbLine
 10
118.0219809167
 20
208.7883869042
 30
0.0
 11
293.194026045
 21
208.7883869042
 31
0.0
  0
MTEXT
  5
25B
330
253
100
AcDbEntity
  8
KOTY
100
AcDbMText
 10
199.5859344429
 20
212.65559024
 30
0.0
 40
3.0
 41
0.0
 71
     1
 72
     1
  1
175,2
  7
SLDTEXTSTYLE0
 73
     1
 44
1.0
  0
ENDBLK
  5
255
330
253
100
AcDbEntity
  8
0
100
AcDbBlockEnd
  0
BLOCK
  5
25E
330
25D
100
AcDbEntity
  8
0
100
AcDbBlockBegin
  2
_D_1
 70
     0
 10
0.0
 20
0.0
 30
0.0
  3
_D_1
  1

  0
INSERT
  5
260
330
25D
100
AcDbEntity
  8
KOTY
100
AcDbBlockReference
  2
_CLOSED
 10
315.2805290622
 20
192.701883887
 30
-0.5
 41
3.302
 42
3.302
 50
90.0
  0
INSERT
  5
261
330
25D
100
AcDbEntity
  8
KOTY
100
AcDbBlockReference
  2
_CLOSED
 10
315.2805290622
 20
112.6748899215
 30
-0.5
 41
3.302
 42
3.302
 50
270.0
  0
LINE
  5
262
330
25D
100
AcDbEntity
  8
KOTY
100
AcDbLine
 10
291.194026045
 20
192.701883887
 30
0.0
 11
316.2805290622
 21
192.701883887
 31
0.0
  0
LINE
  5
263
330
25D
100
AcDbEntity
  8
KOTY
100
AcDbLine
 10
291.194026045
 20
112.6748899215
 30
0.0
 11
316.2805290622
 21
112.6748899215
 31
0.0
  0
LINE
  5
264
330
25D
100
AcDbEntity
  8
KOTY
100
AcDbLine
 10
315.2805290622
 20
192.701883887
 30
0.0
 11
315.2805290622
 21
112.6748899215
 31
0.0
  0
MTEXT
  5
265
330
25D
100
AcDbEntity
  8
KOTY
100
AcDbMText
 10
311.4133257265
 20
151.4113824788
 30
0.0
 40
3.0
 41
0.0
 71
     1
 72
     1
  1
80
  7
SLDTEXTSTYLE0
 11
-7.044195017643634E-15
 21
1.0
 31
0.0
 73
     1
 44
1.0
  0
ENDBLK
  5
25F
330
25D
100
AcDbEntity
  8
0
100
AcDbBlockEnd
  0
ENDSEC
  0
SECTION
  2
ENTITIES
  0
ARC
  5
1D1
330
1F
100
AcDbEntity
  8
0
  6
Continuous
 62
     7
370
    30
100
AcDbCircle
 10
253.1805290622
 20
152.6883869042
 30
0.0
 40
36.50000000000004
100
AcDbArc
 50
106.361103524
 51
163.638896476
  0
ARC
  5
1D2
330
1F
100
AcDbEntity
  8
0
  6
Continuous
 62
     7
370
    30
100
AcDbCircle
 10
219.1180864017
 20
162.6883869042
 30
0.0
 40
1.000000000000023
100
AcDbArc
 50
163.638896476
 51
270.0
  0
ARC
  5
1D3
330
1F
100
AcDbEntity
  8
0
  6
Continuous
 62
     7
370
    30
100
AcDbCircle
 10
219.1180864017
 20
162.6883869042
 30
0.0
 40
1.0
100
AcDbArc
 50
270.0
 51
343.638896476
  0
ARC
  5
1D4
330
1F
100
AcDbEntity
  8
0
  6
Continuous
 62
     7
370
    30
100
AcDbCircle
 10
253.1805290622
 20
152.6883869042
 30
0.0
 40
34.50000000000004
100
AcDbArc
 50
106.361103524
 51
163.638896476
  0
ARC
  5
1D5
330
1F
100
AcDbEntity
  8
0
  6
Continuous
 62
     7
370
    30
100
AcDbCircle
 10
243.1805290622
 20
186.7508295647
 30
0.0
 40
1.0
100
AcDbArc
 50
286.361103524
 51
0.0
  0
ARC
  5
1D6
330
1F
100
AcDbEntity
  8
0
  6
Continuous
 62
     7
370
    30
100
AcDbCircle
 10
243.1805290622
 20
186.7508295647
 30
0.0
 40
1.000000000000031
100
AcDbArc
 50
0.0
 51
106.361103524
  0
ARC
  5
1D7
330
1F
100
AcDbEntity
  8
0
  6
Continuous
 62
     7
370
    30
100
AcDbCircle
 10
243.1805290622
 20
118.6259442437
 30
0.0
 40
1.000000000000004
100
AcDbArc
 50
253.638896476
 51
0.0
  0
ARC
  5
1D8
330
1F
100
AcDbEntity
  8
0
  6
Continuous
 62
     7
370
    30
100
AcDbCircle
 10
243.1805290622
 20
118.6259442437
 30
0.0
 40
1.0
100
AcDbArc
 50
360.0
 51
73.638896476
  0
ARC
  5
1D9
330
1F
100
AcDbEntity
  8
0
  6
Continuous
 62
     7
370
    30
100
AcDbCircle
 10
253.1805290622
 20
152.6883869042
 30
0.0
 40
34.5
100
AcDbArc
 50
196.361103524
 51
253.638896476
  0
ARC
  5
1DA
330
1F
100
AcDbEntity
  8
0
  6
Continuous
 62
     7
370
    30
100
AcDbCircle
 10
219.1180864017
 20
142.6883869042
 30
0.0
 40
1.0
100
AcDbArc
 50
16.361103524
 51
90.0
  0
ARC
  5
1DB
330
1F
100
AcDbEntity
  8
0
  6
Continuous
 62
     7
370
    30
100
AcDbCircle
 10
219.1180864017
 20
142.6883869042
 30
0.0
 40
1.0
100
AcDbArc
 50
90.0
 51
196.361103524
  0
ARC
  5
1DC
330
1F
100
AcDbEntity
  8
0
  6
Continuous
 62
     7
370
    30
100
AcDbCircle
 10
253.1805290622
 20
152.6883869042
 30
0.0
 40
36.50000000000001
100
AcDbArc
 50
196.361103524
 51
253.638896476
  0
ARC
  5
1DD
330
1F
100
AcDbEntity
  8
0
  6
Continuous
 62
     7
370
    30
100
AcDbCircle
 10
263.1805290622
 20
186.7508295647
 30
0.0
 40
1.000000000000023
100
AcDbArc
 50
73.638896476
 51
180.0
  0
ARC
  5
1DE
330
1F
100
AcDbEntity
  8
0
  6
Continuous
 62
     7
370
    30
100
AcDbCircle
 10
263.1805290622
 20
186.7508295647
 30
0.0
 40
1.0
100
AcDbArc
 50
180.0
 51
253.638896476
  0
ARC
  5
1DF
330
1F
100
AcDbEntity
  8
0
  6
Continuous
 62
     7
370
    30
100
AcDbCircle
 10
253.1805290622
 20
152.6883869042
 30
0.0
 40
34.50000000000001
100
AcDbArc
 50
16.361103524
 51
73.638896476
  0
ARC
  5
1E0
330
1F
100
AcDbEntity
  8
0
  6
Continuous
 62
     7
370
    30
100
AcDbCircle
 10
287.2429717227
 20
162.6883869042
 30
0.0
 40
1.000000000000004
100
AcDbArc
 50
196.361103524
 51
270.0
  0
ARC
  5
1E1
330
1F
100
AcDbEntity
  8
0
  6
Continuous
 62
     7
370
    30
100
AcDbCircle
 10
287.2429717227
 20
162.6883869042
 30
0.0
 40
1.0
100
AcDbArc
 50
270.0
 51
16.361103524
  0
ARC
  5
1E2
330
1F
100
AcDbEntity
  8
0
  6
Continuous
 62
     7
370
    30
100
AcDbCircle
 10
253.1805290622
 20
152.6883869042
 30
0.0
 40
36.50000000000003
100
AcDbArc
 50
16.361103524
 51
73.638896476
  0
ARC
  5
1E3
330
1F
100
AcDbEntity
  8
0
  6
Continuous
 62
     7
370
    30
100
AcDbCircle
 10
253.1805290622
 20
152.6883869042
 30
0.0
 40
36.5
100
AcDbArc
 50
286.361103524
 51
343.638896476
  0
ARC
  5
1E4
330
1F
100
AcDbEntity
  8
0
  6
Continuous
 62
     7
370
    30
100
AcDbCircle
 10
287.2429717227
 20
142.6883869042
 30
0.0
 40
1.0
100
AcDbArc
 50
343.638896476
 51
90.0
  0
ARC
  5
1E5
330
1F
100
AcDbEntity
  8
0
  6
Continuous
 62
     7
370
    30
100
AcDbCircle
 10
287.2429717227
 20
142.6883869042
 30
0.0
 40
1.0
100
AcDbArc
 50
90.0
 51
163.638896476
  0
ARC
  5
1E6
330
1F
100
AcDbEntity
  8
0
  6
Continuous
 62
     7
370
    30
100
AcDbCircle
 10
253.1805290622
 20
152.6883869042
 30
0.0
 40
34.5
100
AcDbArc
 50
286.361103524
 51
343.638896476
  0
ARC
  5
1E7
330
1F
100
AcDbEntity
  8
0
  6
Continuous
 62
     7
370
    30
100
AcDbCircle
 10
263.1805290622
 20
118.6259442437
 30
0.0
 40
1.0
100
AcDbArc
 50
106.361103524
 51
180.0
  0
ARC
  5
1E8
330
1F
100
AcDbEntity
  8
0
  6
Continuous
 62
     7
370
    30
100
AcDbCircle
 10
263.1805290622
 20
118.6259442437
 30
0.0
 40
1.0
100
AcDbArc
 50
180.0
 51
286.361103524
  0
CIRCLE
  5
1E9
330
1F
100
AcDbEntity
  8
0
  6
Continuous
 62
     7
370
    30
100
AcDbCircle
 10
283.1805290622
 20
152.6883869042
 30
0.0
 40
1.659999999999968
  0
CIRCLE
  5
1EA
330
1F
100
AcDbEntity
  8
0
  6
Continuous
 62
     7
370
    30
100
AcDbCircle
 10
253.1805290622
 20
122.6883869042
 30
0.0
 40
1.659999999999997
  0
CIRCLE
  5
1EB
330
1F
100
AcDbEntity
  8
0
  6
Continuous
 62
     7
370
    30
100
AcDbCircle
 10
253.1805290622
 20
182.6883869042
 30
0.0
 40
1.659999999999997
  0
CIRCLE
  5
1EC
330
1F
100
AcDbEntity
  8
0
  6
Continuous
 62
     7
370
    30
100
AcDbCircle
 10
223.1805290622
 20
152.6883869042
 30
0.0
 40
1.660000000000025
  0
ARC
  5
1ED
330
1F
100
AcDbEntity
  8
0
  6
Continuous
 62
     7
370
    30
100
AcDbCircle
 10
259.1805290622
 20
152.6883869042
 30
0.0
 40
1.400000000000006
100
AcDbArc
 50
270.0
 51
0.0
  0
ARC
  5
1EE
330
1F
100
AcDbEntity
  8
0
  6
Continuous
 62
     7
370
    30
100
AcDbCircle
 10
259.1805290622
 20
152.6883869042
 30
0.0
 40
1.399999999999977
100
AcDbArc
 50
0.0
 51
90.0
  0
LINE
  5
1EF
330
1F
100
AcDbEntity
  8
0
  6
Continuous
 62
     7
370
    30
100
AcDbLine
 10
254.9805290313
 20
154.0883868543
 30
0.0
 11
259.1805291143
 21
154.0883868543
 31
0.0
  0
ARC
  5
1F0
330
1F
100
AcDbEntity
  8
0
  6
Continuous
 62
     7
370
    30
100
AcDbCircle
 10
254.9805290622
 20
154.4883869042
 30
0.0
 40
0.4000000000000341
100
AcDbArc
 50
180.0
 51
270.0
  0
LINE
  5
1F1
330
1F
100
AcDbEntity
  8
0
  6
Continuous
 62
     7
370
    30
100
AcDbLine
 10
254.5805290123
 20
158.6883869564
 30
0.0
 11
254.5805290123
 21
154.4883868733
 31
0.0
  0
ARC
  5
1F2
330
1F
100
AcDbEntity
  8
0
  6
Continuous
 62
     7
370
    30
100
AcDbCircle
 10
253.1805290622
 20
158.6883869042
 30
0.0
 40
1.400000000000006
100
AcDbArc
 50
0.0
 51
90.0
  0
ARC
  5
1F3
330
1F
100
AcDbEntity
  8
0
  6
Continuous
 62
     7
370
    30
100
AcDbCircle
 10
253.1805290622
 20
158.6883869042
 30
0.0
 40
1.400000000000006
100
AcDbArc
 50
90.0
 51
180.0
  0
LINE
  5
1F4
330
1F
100
AcDbEntity
  8
0
  6
Continuous
 62
     7
370
    30
100
AcDbLine
 10
251.7805291121
 20
154.4883868733
 30
0.0
 11
251.7805291121
 21
158.6883869564
 31
0.0
  0
ARC
  5
1F5
330
1F
100
AcDbEntity
  8
0
  6
Continuous
 62
     7
370
    30
100
AcDbCircle
 10
251.3805290622
 20
154.4883869042
 30
0.0
 40
0.4000000000000341
100
AcDbArc
 50
270.0
 51
0.0
  0
LINE
  5
1F6
330
1F
100
AcDbEntity
  8
0
  6
Continuous
 62
     7
370
    30
100
AcDbLine
 10
247.18052901
 20
154.0883868543
 30
0.0
 11
251.3805290931
 21
154.0883868543
 31
0.0
  0
ARC
  5
1F7
330
1F
100
AcDbEntity
  8
0
  6
Continuous
 62
     7
370
    30
100
AcDbCircle
 10
247.1805290622
 20
152.6883869042
 30
0.0
 40
1.400000000000034
100
AcDbArc
 50
90.0
 51
180.0
  0
ARC
  5
1F8
330
1F
100
AcDbEntity
  8
0
  6
Continuous
 62
     7
370
    30
100
AcDbCircle
 10
247.1805290622
 20
152.6883869042
 30
0.0
 40
1.400000000000034
100
AcDbArc
 50
180.0
 51
270.0
  0
LINE
  5
1F9
330
1F
100
AcDbEntity
  8
0
  6
Continuous
 62
     7
370
    30
100
AcDbLine
 10
251.3805290931
 20
151.2883869541
 30
0.0
 11
247.18052901
 21
151.2883869541
 31
0.0
  0
ARC
  5
1FA
330
1F
100
AcDbEntity
  8
0
  6
Continuous
 62
     7
370
    30
100
AcDbCircle
 10
251.3805290622
 20
150.8883869042
 30
0.0
 40
0.4000000000000341
100
AcDbArc
 50
0.0
 51
90.0
  0
LINE
  5
1FB
330
1F
100
AcDbEntity
  8
0
  6
Continuous
 62
     7
370
    30
100
AcDbLine
 10
251.7805291121
 20
146.6883868521
 30
0.0
 11
251.7805291121
 21
150.8883869351
 31
0.0
  0
ARC
  5
1FC
330
1F
100
AcDbEntity
  8
0
  6
Continuous
 62
     7
370
    30
100
AcDbCircle
 10
253.1805290622
 20
146.6883869042
 30
0.0
 40
1.400000000000006
100
AcDbArc
 50
180.0
 51
270.0
  0
ARC
  5
1FD
330
1F
100
AcDbEntity
  8
0
  6
Continuous
 62
     7
370
    30
100
AcDbCircle
 10
253.1805290622
 20
146.6883869042
 30
0.0
 40
1.400000000000006
100
AcDbArc
 50
270.0
 51
0.0
  0
LINE
  5
1FE
330
1F
100
AcDbEntity
  8
0
  6
Continuous
 62
     7
370
    30
100
AcDbLine
 10
254.5805290123
 20
150.8883869351
 30
0.0
 11
254.5805290123
 21
146.6883868521
 31
0.0
  0
ARC
  5
1FF
330
1F
100
AcDbEntity
  8
0
  6
Continuous
 62
     7
370
    30
100
AcDbCircle
 10
254.9805290622
 20
150.8883869042
 30
0.0
 40
0.4000000000000057
100
AcDbArc
 50
90.0
 51
180.0
  0
LINE
  5
200
330
1F
100
AcDbEntity
  8
0
  6
Continuous
 62
     7
370
    30
100
AcDbLine
 10
259.1805291143
 20
151.2883869541
 30
0.0
 11
254.9805290313
 21
151.2883869541
 31
0.0
  0
LINE
  5
201
330
1F
100
AcDbEntity
  8
0
  6
Continuous
 62
     7
370
    30
100
AcDbLine
 10
120.0219793958
 20
192.7018827369
 30
0.0
 11
196.0501773996
 21
192.7018827369
 31
0.0
  0
ARC
  5
202
330
1F
100
AcDbEntity
  8
0
  6
Continuous
 62
     7
370
    30
100
AcDbCircle
 10
196.0501767787
 20
190.701883887
 30
0.0
 40
2.0
100
AcDbArc
 50
0.0
 51
90.0
  0
LINE
  5
203
330
1F
100
AcDbEntity
  8
0
  6
Continuous
 62
     7
370
    30
100
AcDbLine
 10
198.0501777274
 20
190.7018824091
 30
0.0
 11
198.0501777274
 21
186.7018854787
 31
0.0
  0
ARC
  5
204
330
1F
100
AcDbEntity
  8
0
  6
Continuous
 62
     7
370
    30
100
AcDbCircle
 10
202.0501767787
 20
186.701883887
 30
0.0
 40
4.000000000000028
100
AcDbArc
 50
180.0
 51
270.0
  0
LINE
  5
205
330
1F
100
AcDbEntity
  8
0
  6
Continuous
 62
     7
370
    30
100
AcDbLine
 10
202.050178383
 20
182.7018829604
 30
0.0
 11
209.1658293051
 21
182.7018829604
 31
0.0
  0
ARC
  5
206
330
1F
100
AcDbEntity
  8
0
  6
Continuous
 62
     7
370
    30
100
AcDbCircle
 10
209.165830183
 20
186.701883887
 30
0.0
 40
4.000000000000028
100
AcDbArc
 50
270.0
 51
0.0
  0
LINE
  5
207
330
1F
100
AcDbEntity
  8
0
  6
Continuous
 62
     7
370
    30
100
AcDbLine
 10
213.1658299607
 20
190.7018824091
 30
0.0
 11
213.1658299607
 21
186.7018854787
 31
0.0
  0
ARC
  5
208
330
1F
100
AcDbEntity
  8
0
  6
Continuous
 62
     7
370
    30
100
AcDbCircle
 10
215.165830183
 20
190.701883887
 30
0.0
 40
2.0
100
AcDbArc
 50
90.0
 51
180.0
  0
LINE
  5
209
330
1F
100
AcDbEntity
  8
0
  6
Continuous
 62
     7
370
    30
100
AcDbLine
 10
291.194024567
 20
192.7018827369
 30
0.0
 11
215.1658302886
 21
192.7018827369
 31
0.0
  0
ARC
  5
20A
330
1F
100
AcDbEntity
  8
0
  6
Continuous
 62
     7
370
    30
100
AcDbCircle
 10
291.194026045
 20
190.701883887
 30
0.0
 40
2.0
100
AcDbArc
 50
0.0
 51
90.0
  0
LINE
  5
20B
330
1F
100
AcDbEntity
  8
0
  6
Continuous
 62
     7
370
    30
100
AcDbLine
 10
293.1940248949
 20
114.6748913994
 30
0.0
 11
293.1940248949
 21
190.7018824091
 31
0.0
  0
ARC
  5
20C
330
1F
100
AcDbEntity
  8
0
  6
Continuous
 62
     7
370
    30
100
AcDbCircle
 10
291.194026045
 20
114.6748899215
 30
0.0
 40
2.0
100
AcDbArc
 50
270.0
 51
0.0
  0
LINE
  5
20D
330
1F
100
AcDbEntity
  8
0
  6
Continuous
 62
     7
370
    30
100
AcDbLine
 10
215.1658302886
 20
112.6748910715
 30
0.0
 11
291.194024567
 21
112.6748910715
 31
0.0
  0
ARC
  5
20E
330
1F
100
AcDbEntity
  8
0
  6
Continuous
 62
     7
370
    30
100
AcDbCircle
 10
215.165830183
 20
114.6748899215
 30
0.0
 40
2.0
100
AcDbArc
 50
180.0
 51
270.0
  0
LINE
  5
20F
330
1F
100
AcDbEntity
  8
0
  6
Continuous
 62
     7
370
    30
100
AcDbLine
 10
213.1658299607
 20
118.6748883297
 30
0.0
 11
213.1658299607
 21
114.6748913994
 31
0.0
  0
ARC
  5
210
330
1F
100
AcDbEntity
  8
0
  6
Continuous
 62
     7
370
    30
100
AcDbCircle
 10
209.165830183
 20
118.6748899215
 30
0.0
 40
4.000000000000014
100
AcDbArc
 50
0.0
 51
90.0
  0
LINE
  5
211
330
1F
100
AcDbEntity
  8
0
  6
Continuous
 62
     7
370
    30
100
AcDbLine
 10
209.1658293051
 20
122.674890848
 30
0.0
 11
202.050178383
 21
122.674890848
 31
0.0
  0
ARC
  5
212
330
1F
100
AcDbEntity
  8
0
  6
Continuous
 62
     7
370
    30
100
AcDbCircle
 10
202.0501767787
 20
118.6748899215
 30
0.0
 40
4.000000000000014
100
AcDbArc
 50
90.0
 51
180.0
  0
LINE
  5
213
330
1F
100
AcDbEntity
  8
0
  6
Continuous
 62
     7
370
    30
100
AcDbLine
 10
198.0501777274
 20
118.6748883297
 30
0.0
 11
198.0501777274
 21
114.6748913994
 31
0.0
  0
ARC
  5
214
330
1F
100
AcDbEntity
  8
0
  6
Continuous
 62
     7
370
    30
100
AcDbCircle
 10
196.0501767787
 20
114.6748899215
 30
0.0
 40
2.0
100
AcDbArc
 50
270.0
 51
0.0
  0
LINE
  5
215
330
1F
100
AcDbEntity
  8
0
  6
Continuous
 62
     7
370
    30
100
AcDbLine
 10
196.0501773996
 20
112.6748910715
 30
0.0
 11
120.0219793958
 21
112.6748910715
 31
0.0
  0
ARC
  5
216
330
1F
100
AcDbEntity
  8
0
  6
Continuous
 62
     7
370
    30
100
AcDbCircle
 10
120.0219809167
 20
114.6748899215
 30
0.0
 40
2.0
100
AcDbArc
 50
180.0
 51
270.0
  0
LINE
  5
217
330
1F
100
AcDbEntity
  8
0
  6
Continuous
 62
     7
370
    30
100
AcDbLine
 10
118.0219753427
 20
114.6748913994
 30
0.0
 11
118.0219753427
 21
190.7018824091
 31
0.0
  0
ARC
  5
218
330
1F
100
AcDbEntity
  8
0
  6
Continuous
 62
     7
370
    30
100
AcDbCircle
 10
120.0219809167
 20
190.701883887
 30
0.0
 40
2.0
100
AcDbArc
 50
90.0
 51
180.0
  0
ARC
  5
219
330
1F
100
AcDbEntity
  8
0
  6
Continuous
 62
     7
370
    30
100
AcDbCircle
 10
168.0354778995
 20
186.7508295647
 30
0.0
 40
1.0
100
AcDbArc
 50
180.0
 51
253.638896476
  0
ARC
  5
21A
330
1F
100
AcDbEntity
  8
0
  6
Continuous
 62
     7
370
    30
100
AcDbCircle
 10
158.0354778995
 20
152.6883869042
 30
0.0
 40
34.50000000000003
100
AcDbArc
 50
16.361103524
 51
73.638896476
  0
ARC
  5
21B
330
1F
100
AcDbEntity
  8
0
  6
Continuous
 62
     7
370
    30
100
AcDbCircle
 10
192.09792056
 20
162.6883869042
 30
0.0
 40
1.0
100
AcDbArc
 50
196.361103524
 51
270.0
  0
ARC
  5
21C
330
1F
100
AcDbEntity
  8
0
  6
Continuous
 62
     7
370
    30
100
AcDbCircle
 10
192.09792056
 20
162.6883869042
 30
0.0
 40
1.000000000000023
100
AcDbArc
 50
270.0
 51
16.361103524
  0
ARC
  5
21D
330
1F
100
AcDbEntity
  8
0
  6
Continuous
 62
     7
370
    30
100
AcDbCircle
 10
158.0354778995
 20
152.6883869042
 30
0.0
 40
36.50000000000003
100
AcDbArc
 50
16.361103524
 51
73.638896476
  0
ARC
  5
21E
330
1F
100
AcDbEntity
  8
0
  6
Continuous
 62
     7
370
    30
100
AcDbCircle
 10
168.0354778995
 20
186.7508295647
 30
0.0
 40
1.000000000000004
100
AcDbArc
 50
73.638896476
 51
180.0
  0
ARC
  5
21F
330
1F
100
AcDbEntity
  8
0
  6
Continuous
 62
     7
370
    30
100
AcDbCircle
 10
192.09792056
 20
142.6883869042
 30
0.0
 40
1.0
100
AcDbArc
 50
343.638896476
 51
90.0
  0
ARC
  5
220
330
1F
100
AcDbEntity
  8
0
  6
Continuous
 62
     7
370
    30
100
AcDbCircle
 10
192.09792056
 20
142.6883869042
 30
0.0
 40
1.0
100
AcDbArc
 50
90.0
 51
163.638896476
  0
ARC
  5
221
330
1F
100
AcDbEntity
  8
0
  6
Continuous
 62
     7
370
    30
100
AcDbCircle
 10
158.0354778995
 20
152.6883869042
 30
0.0
 40
34.50000000000001
100
AcDbArc
 50
286.361103524
 51
343.638896476
  0
ARC
  5
222
330
1F
100
AcDbEntity
  8
0
  6
Continuous
 62
     7
370
    30
100
AcDbCircle
 10
168.0354778995
 20
118.6259442437
 30
0.0
 40
1.000000000000004
100
AcDbArc
 50
106.361103524
 51
180.0
  0
ARC
  5
223
330
1F
100
AcDbEntity
  8
0
  6
Continuous
 62
     7
370
    30
100
AcDbCircle
 10
168.0354778995
 20
118.6259442437
 30
0.0
 40
1.000000000000009
100
AcDbArc
 50
180.0
 51
286.361103524
  0
ARC
  5
224
330
1F
100
AcDbEntity
  8
0
  6
Continuous
 62
     7
370
    30
100
AcDbCircle
 10
158.0354778995
 20
152.6883869042
 30
0.0
 40
36.50000000000003
100
AcDbArc
 50
286.361103524
 51
343.638896476
  0
ARC
  5
225
330
1F
100
AcDbEntity
  8
0
  6
Continuous
 62
     7
370
    30
100
AcDbCircle
 10
123.973035239
 20
162.6883869042
 30
0.0
 40
1.000000000000017
100
AcDbArc
 50
163.638896476
 51
270.0
  0
ARC
  5
226
330
1F
100
AcDbEntity
  8
0
  6
Continuous
 62
     7
370
    30
100
AcDbCircle
 10
123.973035239
 20
162.6883869042
 30
0.0
 40
1.0
100
AcDbArc
 50
270.0
 51
343.638896476
  0
ARC
  5
227
330
1F
100
AcDbEntity
  8
0
  6
Continuous
 62
     7
370
    30
100
AcDbCircle
 10
158.0354778995
 20
152.6883869042
 30
0.0
 40
34.5
100
AcDbArc
 50
106.361103524
 51
163.638896476
  0
ARC
  5
228
330
1F
100
AcDbEntity
  8
0
  6
Continuous
 62
     7
370
    30
100
AcDbCircle
 10
148.0354778995
 20
186.7508295647
 30
0.0
 40
1.0
100
AcDbArc
 50
286.361103524
 51
0.0
  0
ARC
  5
229
330
1F
100
AcDbEntity
  8
0
  6
Continuous
 62
     7
370
    30
100
AcDbCircle
 10
148.0354778995
 20
186.7508295647
 30
0.0
 40
1.0
100
AcDbArc
 50
360.0
 51
106.361103524
  0
ARC
  5
22A
330
1F
100
AcDbEntity
  8
0
  6
Continuous
 62
     7
370
    30
100
AcDbCircle
 10
158.0354778995
 20
152.6883869042
 30
0.0
 40
36.50000000000001
100
AcDbArc
 50
106.361103524
 51
163.638896476
  0
ARC
  5
22B
330
1F
100
AcDbEntity
  8
0
  6
Continuous
 62
     7
370
    30
100
AcDbCircle
 10
148.0354778995
 20
118.6259442437
 30
0.0
 40
0.9999999999999957
100
AcDbArc
 50
0.0
 51
73.638896476
  0
ARC
  5
22C
330
1F
100
AcDbEntity
  8
0
  6
Continuous
 62
     7
370
    30
100
AcDbCircle
 10
158.0354778995
 20
152.6883869042
 30
0.0
 40
34.5
100
AcDbArc
 50
196.361103524
 51
253.638896476
  0
ARC
  5
22D
330
1F
100
AcDbEntity
  8
0
  6
Continuous
 62
     7
370
    30
100
AcDbCircle
 10
123.973035239
 20
142.6883869042
 30
0.0
 40
1.000000000000031
100
AcDbArc
 50
16.361103524
 51
90.0
  0
ARC
  5
22E
330
1F
100
AcDbEntity
  8
0
  6
Continuous
 62
     7
370
    30
100
AcDbCircle
 10
123.973035239
 20
142.6883869042
 30
0.0
 40
1.000000000000009
100
AcDbArc
 50
90.0
 51
196.361103524
  0
ARC
  5
22F
330
1F
100
AcDbEntity
  8
0
  6
Continuous
 62
     7
370
    30
100
AcDbCircle
 10
158.0354778995
 20
152.6883869042
 30
0.0
 40
36.50000000000003
100
AcDbArc
 50
196.361103524
 51
253.638896476
  0
ARC
  5
230
330
1F
100
AcDbEntity
  8
0
  6
Continuous
 62
     7
370
    30
100
AcDbCircle
 10
148.0354778995
 20
118.6259442437
 30
0.0
 40
1.000000000000017
100
AcDbArc
 50
253.638896476
 51
0.0
  0
CIRCLE
  5
231
330
1F
100
AcDbEntity
  8
0
  6
Continuous
 62
     7
370
    30
100
AcDbCircle
 10
128.0354778995
 20
152.6883869042
 30
0.0
 40
1.659999999999997
  0
CIRCLE
  5
232
330
1F
100
AcDbEntity
  8
0
  6
Continuous
 62
     7
370
    30
100
AcDbCircle
 10
158.0354778995
 20
122.6883869042
 30
0.0
 40
1.659999999999997
  0
CIRCLE
  5
233
330
1F
100
AcDbEntity
  8
0
  6
Continuous
 62
     7
370
    30
100
AcDbCircle
 10
158.0354778995
 20
182.6883869042
 30
0.0
 40
1.659999999999997
  0
CIRCLE
  5
234
330
1F
100
AcDbEntity
  8
0
  6
Continuous
 62
     7
370
    30
100
AcDbCircle
 10
188.0354778995
 20
152.6883869042
 30
0.0
 40
1.659999999999997
  0
ARC
  5
235
330
1F
100
AcDbEntity
  8
0
  6
Continuous
 62
     7
370
    30
100
AcDbCircle
 10
156.2354778995
 20
150.8883869042
 30
0.0
 40
0.4000000000000057
100
AcDbArc
 50
0.0
 51
90.0
  0
LINE
  5
236
330
1F
100
AcDbEntity
  8
0
  6
Continuous
 62
     7
370
    30
100
AcDbLine
 10
156.6354810042
 20
150.8883869351
 30
0.0
 11
156.6354810042
 21
146.6883868521
 31
0.0
  0
ARC
  5
237
330
1F
100
AcDbEntity
  8
0
  6
Continuous
 62
     7
370
    30
100
AcDbCircle
 10
158.0354778995
 20
146.6883869042
 30
0.0
 40
1.399999999999977
100
AcDbArc
 50
180.0
 51
270.0
  0
ARC
  5
238
330
1F
100
AcDbEntity
  8
0
  6
Continuous
 62
     7
370
    30
100
AcDbCircle
 10
158.0354778995
 20
146.6883869042
 30
0.0
 40
1.400000000000006
100
AcDbArc
 50
270.0
 51
0.0
  0
LINE
  5
239
330
1F
100
AcDbEntity
  8
0
  6
Continuous
 62
     7
370
    30
100
AcDbLine
 10
159.4354762477
 20
146.6883868521
 30
0.0
 11
159.4354762477
 21
150.8883869351
 31
0.0
  0
ARC
  5
23A
330
1F
100
AcDbEntity
  8
0
  6
Continuous
 62
     7
370
    30
100
AcDbCircle
 10
159.8354778995
 20
150.8883869042
 30
0.0
 40
0.3999999999999773
100
AcDbArc
 50
90.0
 51
180.0
  0
LINE
  5
23B
330
1F
100
AcDbEntity
  8
0
  6
Continuous
 62
     7
370
    30
100
AcDbLine
 10
159.8354755682
 20
151.2883869541
 30
0.0
 11
164.0354796094
 21
151.2883869541
 31
0.0
  0
ARC
  5
23C
330
1F
100
AcDbEntity
  8
0
  6
Continuous
 62
     7
370
    30
100
AcDbCircle
 10
164.0354778995
 20
152.6883869042
 30
0.0
 40
1.400000000000006
100
AcDbArc
 50
270.0
 51
0.0
  0
ARC
  5
23D
330
1F
100
AcDbEntity
  8
0
  6
Continuous
 62
     7
370
    30
100
AcDbCircle
 10
164.0354778995
 20
152.6883869042
 30
0.0
 40
1.400000000000006
100
AcDbArc
 50
0.0
 51
90.0
  0
LINE
  5
23E
330
1F
100
AcDbEntity
  8
0
  6
Continuous
 62
     7
370
    30
100
AcDbLine
 10
164.0354796094
 20
154.0883868543
 30
0.0
 11
159.8354755682
 21
154.0883868543
 31
0.0
  0
ARC
  5
23F
330
1F
100
AcDbEntity
  8
0
  6
Continuous
 62
     7
370
    30
100
AcDbCircle
 10
159.8354778995
 20
154.4883869042
 30
0.0
 40
0.4000000000000057
100
AcDbArc
 50
180.0
 51
270.0
  0
LINE
  5
240
330
1F
100
AcDbEntity
  8
0
  6
Continuous
 62
     7
370
    30
100
AcDbLine
 10
159.4354762477
 20
154.4883868733
 30
0.0
 11
159.4354762477
 21
158.6883869564
 31
0.0
  0
ARC
  5
241
330
1F
100
AcDbEntity
  8
0
  6
Continuous
 62
     7
370
    30
100
AcDbCircle
 10
158.0354778995
 20
158.6883869042
 30
0.0
 40
1.400000000000006
100
AcDbArc
 50
0.0
 51
90.0
  0
ARC
  5
242
330
1F
100
AcDbEntity
  8
0
  6
Continuous
 62
     7
370
    30
100
AcDbCircle
 10
158.0354778995
 20
158.6883869042
 30
0.0
 40
1.400000000000006
100
AcDbArc
 50
90.0
 51
180.0
  0
LINE
  5
243
330
1F
100
AcDbEntity
  8
0
  6
Continuous
 62
     7
370
    30
100
AcDbLine
 10
156.6354810042
 20
158.6883869564
 30
0.0
 11
156.6354810042
 21
154.4883868733
 31
0.0
  0
ARC
  5
244
330
1F
100
AcDbEntity
  8
0
  6
Continuous
 62
     7
370
    30
100
AcDbCircle
 10
156.2354778995
 20
154.4883869042
 30
0.0
 40
0.4000000000000057
100
AcDbArc
 50
270.0
 51
0.0
  0
LINE
  5
245
330
1F
100
AcDbEntity
  8
0
  6
Continuous
 62
     7
370
    30
100
AcDbLine
 10
156.2354742331
 20
154.0883868543
 30
0.0
 11
152.0354776425
 21
154.0883868543
 31
0.0
  0
ARC
  5
246
330
1F
100
AcDbEntity
  8
0
  6
Continuous
 62
     7
370
    30
100
AcDbCircle
 10
152.0354778995
 20
152.6883869042
 30
0.0
 40
1.400000000000006
100
AcDbArc
 50
90.0
 51
180.0
  0
ARC
  5
247
330
1F
100
AcDbEntity
  8
0
  6
Continuous
 62
     7
370
    30
100
AcDbCircle
 10
152.0354778995
 20
152.6883869042
 30
0.0
 40
1.399999999999977
100
AcDbArc
 50
180.0
 51
270.0
  0
LINE
  5
248
330
1F
100
AcDbEntity
  8
0
  6
Continuous
 62
     7
370
    30
100
AcDbLine
 10
152.0354776425
 20
151.2883869541
 30
0.0
 11
156.2354742331
 21
151.2883869541
 31
0.0
  0
DIMENSION
  5
249
330
1F
100
AcDbEntity
  8
KOTY
100
AcDbDimension
  2
_D
 10
293.194026045
 20
208.7883869042
 30
0.0
 11
204.5734345852
 21
208.7883869042
 31
0.0
 70
   160
  1
<>
 71
     2
 42
-1.0
  3
SLDDIMSTYLE0
100
AcDbAlignedDimension
 13
118.0219809167
 23
190.701883887
 33
0.0
 14
293.194026045
 24
190.701883887
 34
0.0
100
AcDbRotatedDimension
  0
DIMENSION
  5
25C
330
1F
100
AcDbEntity
  8
KOTY
100
AcDbDimension
  2
_D_1
 10
315.2805290622
 20
112.6748899215
 30
0.0
 11
315.2805290622
 21
153.6280491829
 31
0.0
 70
   160
  1
<>
 71
     2
 42
-1.0
  3
SLDDIMSTYLE0
100
AcDbAlignedDimension
 13
291.194026045
 23
192.701883887
 33
0.0
 14
291.194026045
 24
112.6748899215
 34
0.0
 50
90.0
100
AcDbRotatedDimension
  0
ENDSEC
  0
SECTION
  2
OBJECTS
  0
DICTIONARY
  5
C
330
0
100
AcDbDictionary
281
     1
  3
ACAD_GROUP
350
D
  3
ACAD_LAYOUT
350
1A
  3
ACAD_MLINESTYLE
350
17
  3
ACAD_PLOTSETTINGS
350
19
  3
ACAD_PLOTSTYLENAME
350
E
  3
ACAD_SCALELIST
350
47
  0
DICTIONARY
  5
D
102
{ACAD_REACTORS
330
C
102
}
330
C
100
AcDbDictionary
281
     1
  0
DICTIONARY
  5
1A
102
{ACAD_REACTORS
330
C
102
}
330
C
100
AcDbDictionary
281
     1
  3
Layout1
350
1E
  3
Layout2
350
26
  3
Model
350
22
  0
DICTIONARY
  5
17
102
{ACAD_REACTORS
330
C
102
}
330
C
100
AcDbDictionary
281
     1
  3
Standard
350
18
  0
DICTIONARY
  5
19
102
{ACAD_REACTORS
330
C
102
}
330
C
100
AcDbDictionary
281
     1
  0
ACDBDICTIONARYWDFLT
  5
E
102
{ACAD_REACTORS
330
C
102
}
330
C
100
AcDbDictionary
281
     1
  3
Normal
350
F
100
AcDbDictionaryWithDefault
340
F
  0
DICTIONARY
  5
47
102
{ACAD_REACTORS
330
C
102
}
330
C
100
AcDbDictionary
281
     1
  3
A0
350
48
  3
A1
350
49
  3
A2
350
4A
  3
A3
350
4B
  3
A4
350
4C
  3
A5
350
4D
  3
A6
350
4E
  3
A7
350
4F
  3
A8
350
50
  3
A9
350
51
  3
B0
350
52
  3
B1
350
53
  3
B2
350
54
  3
B3
350
55
  3
B4
350
56
  3
B5
350
57
  3
B6
350
58
  3
B7
350
59
  3
B8
350
5A
  3
B9
350
5B
  3
C0
350
5C
  3
C1
350
5D
  3
C2
350
5E
  3
C3
350
5F
  3
C4
350
60
  3
C5
350
61
  3
C6
350
62
  3
C7
350
63
  3
C8
350
64
  3
C9
350
65
  3
D0
350
66
  3
D1
350
67
  3
D2
350
68
  0
LAYOUT
  5
1E
102
{ACAD_REACTORS
330
1A
102
}
330
1A
100
AcDbPlotSettings
  1

  2
none_device
  4

  6

 40
0.0
 41
0.0
 42
0.0
 43
0.0
 44
0.0
 45
0.0
 46
0.0
 47
0.0
 48
0.0
 49
0.0
140
0.0
141
0.0
142
1.0
143
1.0
 70
   688
 72
     1
 73
     0
 74
     5
  7

 75
    16
147
1.0
148
0.0
149
0.0
100
AcDbLayout
  1
Layout1
 70
     1
 71
     1
 10
0.0
 20
0.0
 11
420.0
 21
297.0
 12
0.0
 22
0.0
 32
0.0
 14
1.0000000000E+20
 24
1.0000000000E+20
 34
1.0000000000E+20
 15
-1.0000000000E+20
 25
-1.0000000000E+20
 35
-1.0000000000E+20
146
0.0
 13
0.0
 23
0.0
 33
0.0
 16
1.0
 26
0.0
 36
0.0
 17
0.0
 27
1.0
 37
0.0
 76
     0
330
1B
  0
LAYOUT
  5
26
102
{ACAD_REACTORS
330
1A
102
}
330
1A
100
AcDbPlotSettings
  1

  2
none_device
  4

  6

 40
0.0
 41
0.0
 42
0.0
 43
0.0
 44
0.0
 45
0.0
 46
0.0
 47
0.0
 48
0.0
 49
0.0
140
0.0
141
0.0
142
1.0
143
1.0
 70
   688
 72
     1
 73
     0
 74
     5
  7

 75
    16
147
1.0
148
0.0
149
0.0
100
AcDbLayout
  1
Layout2
 70
     1
 71
     2
 10
0.0
 20
0.0
 11
0.0
 21
0.0
 12
0.0
 22
0.0
 32
0.0
 14
0.0
 24
0.0
 34
0.0
 15
0.0
 25
0.0
 35
0.0
146
0.0
 13
0.0
 23
0.0
 33
0.0
 16
1.0
 26
0.0
 36
0.0
 17
0.0
 27
1.0
 37
0.0
 76
     0
330
23
  0
LAYOUT
  5
22
102
{ACAD_REACTORS
330
1A
102
}
330
1A
100
AcDbPlotSettings
  1

  2
none_device
  4
Letter_(8.50_x_11.00_Inches)
  6

 40
6.35
 41
6.35
 42
6.35000508
 43
6.35000508
 44
215.9
 45
279.4
 46
0.0
 47
0.0
 48
0.0
 49
0.0
140
0.0
141
0.0
142
1.0
143
1.0
 70
  1712
 72
     1
 73
     0
 74
     0
  7

 75
     0
147
1.0
148
0.0
149
0.0
100
AcDbLayout
  1
Model
 70
     1
 71
     0
 10
0.0
 20
0.0
 11
420.0
 21
297.0
 12
0.0
 22
0.0
 32
0.0
 14
0.0
 24
0.0
 34
0.0
 15
420.0
 25
297.0
 35
0.0
146
0.0
 13
0.0
 23
0.0
 33
0.0
 16
1.0
 26
0.0
 36
0.0
 17
0.0
 27
1.0
 37
0.0
 76
     0
330
1F
331
29
  0
MLINESTYLE
  5
18
102
{ACAD_REACTORS
330
17
102
}
330
17
100
AcDbMlineStyle
  2
Standard
 70
     0
  3

 62
   256
 51
90.0
 52
90.0
 71
     2
 49
0.5
 62
   256
  6
BYLAYER
 49
-0.5
 62
   256
  6
BYLAYER
  0
ACDBPLACEHOLDER
  5
F
102
{ACAD_REACTORS
330
E
102
}
330
E
  0
SCALE
  5
48
102
{ACAD_REACTORS
330
47
102
}
330
47
100
AcDbScale
 70
     0
300
1:1
140
1.0
141
1.0
290
     1
  0
SCALE
  5
49
102
{ACAD_REACTORS
330
47
102
}
330
47
100
AcDbScale
 70
     0
300
1:2
140
1.0
141
2.0
290
     0
  0
SCALE
  5
4A
102
{ACAD_REACTORS
330
47
102
}
330
47
100
AcDbScale
 70
     0
300
1:4
140
1.0
141
4.0
290
     0
  0
SCALE
  5
4B
102
{ACAD_REACTORS
330
47
102
}
330
47
100
AcDbScale
 70
     0
300
1:5
140
1.0
141
5.0
290
     0
  0
SCALE
  5
4C
102
{ACAD_REACTORS
330
47
102
}
330
47
100
AcDbScale
 70
     0
300
1:8
140
1.0
141
8.0
290
     0
  0
SCALE
  5
4D
102
{ACAD_REACTORS
330
47
102
}
330
47
100
AcDbScale
 70
     0
300
1:10
140
1.0
141
10.0
290
     0
  0
SCALE
  5
4E
102
{ACAD_REACTORS
330
47
102
}
330
47
100
AcDbScale
 70
     0
300
1:16
140
1.0
141
16.0
290
     0
  0
SCALE
  5
4F
102
{ACAD_REACTORS
330
47
102
}
330
47
100
AcDbScale
 70
     0
300
1:20
140
1.0
141
20.0
290
     0
  0
SCALE
  5
50
102
{ACAD_REACTORS
330
47
102
}
330
47
100
AcDbScale
 70
     0
300
1:30
140
1.0
141
30.0
290
     0
  0
SCALE
  5
51
102
{ACAD_REACTORS
330
47
102
}
330
47
100
AcDbScale
 70
     0
300
1:40
140
1.0
141
40.0
290
     0
  0
SCALE
  5
52
102
{ACAD_REACTORS
330
47
102
}
330
47
100
AcDbScale
 70
     0
300
1:50
140
1.0
141
50.0
290
     0
  0
SCALE
  5
53
102
{ACAD_REACTORS
330
47
102
}
330
47
100
AcDbScale
 70
     0
300
1:100
140
1.0
141
100.0
290
     0
  0
SCALE
  5
54
102
{ACAD_REACTORS
330
47
102
}
330
47
100
AcDbScale
 70
     0
300
2:1
140
2.0
141
1.0
290
     0
  0
SCALE
  5
55
102
{ACAD_REACTORS
330
47
102
}
330
47
100
AcDbScale
 70
     0
300
4:1
140
4.0
141
1.0
290
     0
  0
SCALE
  5
56
102
{ACAD_REACTORS
330
47
102
}
330
47
100
AcDbScale
 70
     0
300
8:1
140
8.0
141
1.0
290
     0
  0
SCALE
  5
57
102
{ACAD_REACTORS
330
47
102
}
330
47
100
AcDbScale
 70
     0
300
10:1
140
10.0
141
1.0
290
     0
  0
SCALE
  5
58
102
{ACAD_REACTORS
330
47
102
}
330
47
100
AcDbScale
 70
     0
300
100:1
140
100.0
141
1.0
290
     0
  0
SCALE
  5
59
102
{ACAD_REACTORS
330
47
102
}
330
47
100
AcDbScale
 70
     0
300
1/128" = 1'-0"
140
0.0078125
141
12.0
290
     0
  0
SCALE
  5
5A
102
{ACAD_REACTORS
330
47
102
}
330
47
100
AcDbScale
 70
     0
300
1/64" = 1'-0"
140
0.015625
141
12.0
290
     0
  0
SCALE
  5
5B
102
{ACAD_REACTORS
330
47
102
}
330
47
100
AcDbScale
 70
     0
300
1/32" = 1'-0"
140
0.03125
141
12.0
290
     0
  0
SCALE
  5
5C
102
{ACAD_REACTORS
330
47
102
}
330
47
100
AcDbScale
 70
     0
300
1/16" = 1'-0"
140
0.0625
141
12.0
290
     0
  0
SCALE
  5
5D
102
{ACAD_REACTORS
330
47
102
}
330
47
100
AcDbScale
 70
     0
300
3/32" = 1'-0"
140
0.09375
141
12.0
290
     0
  0
SCALE
  5
5E
102
{ACAD_REACTORS
330
47
102
}
330
47
100
AcDbScale
 70
     0
300
1/8" = 1'-0"
140
0.125
141
12.0
290
     0
  0
SCALE
  5
5F
102
{ACAD_REACTORS
330
47
102
}
330
47
100
AcDbScale
 70
     0
300
3/16" = 1'-0"
140
0.1875
141
12.0
290
     0
  0
SCALE
  5
60
102
{ACAD_REACTORS
330
47
102
}
330
47
100
AcDbScale
 70
     0
300
1/4" = 1'-0"
140
0.25
141
12.0
290
     0
  0
SCALE
  5
61
102
{ACAD_REACTORS
330
47
102
}
330
47
100
AcDbScale
 70
     0
300
3/8" = 1'-0"
140
0.375
141
12.0
290
     0
  0
SCALE
  5
62
102
{ACAD_REACTORS
330
47
102
}
330
47
100
AcDbScale
 70
     0
300
1/2" = 1'-0"
140
0.5
141
12.0
290
     0
  0
SCALE
  5
63
102
{ACAD_REACTORS
330
47
102
}
330
47
100
AcDbScale
 70
     0
300
3/4" = 1'-0"
140
0.75
141
12.0
290
     0
  0
SCALE
  5
64
102
{ACAD_REACTORS
330
47
102
}
330
47
100
AcDbScale
 70
     0
300
1" = 1'-0"
140
1.0
141
12.0
290
     0
  0
SCALE
  5
65
102
{ACAD_REACTORS
330
47
102
}
330
47
100
AcDbScale
 70
     0
300
1-1/2" = 1'-0"
140
1.5
141
12.0
290
     0
  0
SCALE
  5
66
102
{ACAD_REACTORS
330
47
102
}
330
47
100
AcDbScale
 70
     0
300
3" = 1'-0"
140
3.0
141
12.0
290
     0
  0
SCALE
  5
67
102
{ACAD_REACTORS
330
47
102
}
330
47
100
AcDbScale
 70
     0
300
6" = 1'-0"
140
6.0
141
12.0
290
     0
  0
SCALE
  5
68
102
{ACAD_REACTORS
330
47
102
}
330
47
100
AcDbScale
 70
     0
300
1'-0" = 1'-0"
140
12.0
141
12.0
290
     0
  0
ENDSEC
  0
EOF
